Tags
Language
Tags

Car Photography & Retouching with Easton Chang (Full Course)

Posted By: ParRus
Car Photography & Retouching with Easton Chang (Full Course)

Car Photography & Retouching with Easton Chang (2017)
WEBRip | MP4 + Project Files | English | 1920 x 1080 | AVC ~4700 kbps | 23.976 fps
AAC | 135 Kbps | 48.0 KHz | 2 channels | 22:11:30 | 23.77 GB
Genre: Video Tutorial / Photographing

Car photography is about capturing the feelings a car evokes. Whether the emotion is speed, beauty, or just raw power, translating those feelings into an image can present a multitude of challenges. RGG EDU has partnered with world-renowned car photographer, Easton Chang, to explore the secrets behind the methods he employs to create his dynamic images. Easton will teach students how to incorporate simple and advanced techniques to capture design details that will induce drama and speed into their static images.
Content:

01 Introduction
01-01-Introduction.mp4
01-02-Introduction-My Ethos.mp4
01-03-Introduction-There is No Secret Formula.mp4
01-04-Introduction-Searching for Light.mp4
01-05-Introduction-Post Production.mp4
01-06-Introduction-The Gear.mp4

02 Shape and Form Part1
02-07-Shape and Form-Static Shot One.mp4
02-08-Shape and Form-Static Shot Two.mp4

02 Shape and Form Part2
02-09-Shape and Form-Panning Shot.mp4
02-10-Shape and Form-Tracking Shot.mp4
02-11-Shape and Form-Action Shot.mp4

02 Shape and Form Part3
02-12-Shape and Form-Static Shot One-RAW Processing and Assembly.mp4
02-13-Shape and Form-Static Shot One-Adjustments.mp4
02-14-Shape and Form-Static Shot One-Color Toning.mp4
02-15-Shape and Form-Static Shot Two-RAW Processing and Assembly.mp4
02-16-Shape and Form-Static Shot Two-Adjustments.mp4
02-17-Shape and Form-Static Shot Two-Color Toning.mp4
02-18-Shape and Form-Panning Shot-Full Edit.mp4
02-19-Shape and Form-Tracking Shot-Full Edit.mp4
02-20-Shape and Form-Action Shot One-RAW Processing.mp4
02-21-Shape and Form-Action Shot One-Adjustments.mp4
02-22-Shape and Form-Action Shot One-Color Toning.mp4
02-23-Shape and Form-Action Shot Two-RAW Processing.mp4
02-24-Shape and Form-Action Shot Two-Adjustments.mp4
02-25-Shape and Form-Action Shot Two-Color Toning.mp4

03 Light Painting Part1
03-26-Light Painting-With Strobe.mp4
03-27-Light Painting-With Modeling Light.mp4

03 Light Painting Part2
03-28-Light Painting-With Ice Light.mp4
03-29-Light Painting-Image 1-RAW Processing and Assembly.mp4
03-30-Light Painting-Image 1-Adjustments.mp4
03-31-Light Painting-Image 1-Color Toning.mp4
03-32-Light Painting-Image 2-RAW Processing and Assembly.mp4
03-33-Light Painting-Image 2-Adjustments.mp4
03-34-Light Painting-Image 2-Color Toning.mp4
03-35-Light Painting-Image 3-RAW Processing and Assembly.mp4
03-36-Light Painting-Image 3-Adjustments and Color Toning.mp4

03 Light Painting Part3
03-37-Light Painting-Image 3-Additional Clean Up.mp4
03-38-Light Painting-Image 4-RAW Processing and Assembly.mp4
03-39-Light Painting-Image 4-Adjustments.mp4
03-40-Light Painting-Image 4-Color Toning.mp4

04 Ice and Fire Part1
04-41-Ice and Fire-Cover Shot Part I.mp4
04-42-Ice and Fire-Cover Shot Part II.mp4
04-43-Ice and Fire-Engine Bay Shot.mp4

04 Ice and Fire Part2
04-44-Ice and Fire-Interior Shot.mp4
04-45-Ice and Fire-Cover Image-Exposure.mp4
04-46-Ice and Fire-Cover Image-Adjustments.mp4
04-47-Ice and Fire-Cover Image-Color Toning.mp4
04-48-Ice and Fire-Cover Alternative-Full Edit.mp4
04-49-Ice and Fire-Image 2-Exposure.mp4
04-50-Ice and Fire-Image 2-Adjustments.mp4
04-51-Ice and Fire-Image 2-Color Toning.mp4
04-52-Ice and Fire-Image 3-Full Edit.mp4
04-53-Ice and Fire-Image 4-Full Edit.mp4
04-54-Ice and Fire-Image 5-Full Edit.mp4
04-55-Ice and Fire-Image 6-Full Edit.mp4

05 Illusion of Speed Part1
05-56-Illusion of Speed-Rig Set Up.mp4

05 Illusion of Speed Part2
05-57-Illusion of Speed-Rig Shoot with Lotus.mp4

05 Illusion of Speed Part3
05-58-Illusion of Speed-Rig Shoot with Porsche.mp4
05-59-Illusion of Speed-Image 1-RAW Processing and Assembly.mp4
05-60-Illusion of Speed-Image 1-Background Rig Removal.mp4
05-61-Illusion of Speed-Image 1-Reflection Removal.mp4
05-62-Illusion of Speed-Image 1-Roof Rig Removal.mp4
05-63-Illusion of Speed-Image 1-Adjustments.mp4
05-64-Illusion of Speed-Image 1-Color Toning.mp4
05-65-Illusion of Speed-Image 2-RAW Processing.mp4

05 Illusion of Speed Part4
05-66-Illusion of Speed-Image 2-Rig Removal.mp4
05-67-Illusion of Speed-Image 2-Rig Removal from Car.mp4
05-68-Illusion of Speed-Image 2-Adjustments and Color Toning.mp4
05-69-Illusion of Speed-Image 3-RAW Processing and Rig Removal.mp4
05-70-Illusion of Speed-Image 3-Adjustments.mp4
05-71-Illusion of Speed-Image 3-Adding Lens Flare.mp4
05-72-Illusion of Speed-Image 3-Color Toning.mp4
17 Others + RAW files

also You can look my other last: Photography-posts

General
Complete name : 01-03-Introduction-There is No Secret Formula.mp4
Format : MPEG-4
Format profile : Base Media / Version 2
Codec ID : mp42
File size : 155 MiB
Duration : 4mn 25s
Overall bit rate mode : Variable
Overall bit rate : 4 890 Kbps
Collection : Easton Chang Car Photography & Retouching
Track name : 01-03-Introduction-There is No Secret Formula
Performer : Easton Chang
Director : Rob Grimm
ContentType : Short Film
Tagged date : UTC 2017-01-23 23:27:54
Writing application : HandBrake 0.10.0 2014112200
Copyright : RGG EDU
Cover : Yes
Rating : None

Video
ID : 1
Format : AVC
Format/Info : Advanced Video Codec
Format profile : Main@L4
Format settings, CABAC : Yes
Format settings, ReFrames : 4 frames
Codec ID : avc1
Codec ID/Info : Advanced Video Coding
Duration : 4mn 25s
Bit rate : 4 700 Kbps
Width : 1 920 pixels
Height : 1 080 pixels
Display aspect ratio : 16:9
Frame rate mode : Variable
Frame rate : 23.976 fps
Minimum frame rate : 23.974 fps
Maximum frame rate : 23.981 fps
Color space : YUV
Chroma subsampling : 4:2:0
Bit depth : 8 bits
Scan type : Progressive
Bits/(Pixel*Frame) : 0.095
Stream size : 149 MiB (96%)
Title : Video Track
Writing library : x264 core 142 r2479 dd79a61
Encoding settings : cabac=1 / ref=1 / deblock=1:0:0 / analyse=0x1:0x111 / me=hex / subme=2 / psy=1 / psy_rd=1.00:0.00 / mixed_ref=0 / me_range=16 / chroma_me=1 / trellis=0 / 8x8dct=0 / cqm=0 / deadzone=21,11 / fast_pskip=1 / chroma_qp_offset=0 / threads=12 / lookahead_threads=4 / sliced_threads=0 / nr=0 / decimate=1 / interlaced=0 / bluray_compat=0 / constrained_intra=0 / bframes=3 / b_pyramid=2 / b_adapt=1 / b_bias=0 / direct=1 / weightb=1 / open_gop=0 / weightp=1 / keyint=240 / keyint_min=24 / scenecut=40 / intra_refresh=0 / rc_lookahead=10 / rc=crf / mbtree=1 / crf=21.0 / qcomp=0.60 / qpmin=0 / qpmax=69 / qpstep=4 / vbv_maxrate=20000 / vbv_bufsize=25000 / crf_max=0.0 / nal_hrd=none / filler=0 / ip_ratio=1.40 / aq=1:1.00
Language : English
Color range : Limited
Color primaries : BT.709
Transfer characteristics : BT.709
Matrix coefficients : BT.709

Audio
ID : 2
Format : AAC
Format/Info : Advanced Audio Codec
Format profile : LC
Codec ID : 40
Duration : 4mn 25s
Bit rate mode : Variable
Bit rate : 135 Kbps
Channel(s) : 2 channels
Channel positions : Front: L R
Sampling rate : 48.0 KHz
Compression mode : Lossy
Stream size : 4.29 MiB (3%)
Title : Stereo / Audio Track
Language : English

Text
ID : 3
Format : Timed Text
Muxing mode : sbtl
Codec ID : tx3g
Duration : 4mn 21s
Bit rate mode : Variable
Bit rate : 108 bps
Stream size : 3.44 KiB (0%)
Title : Subtitle Track
Language : English

Screenshots

Car Photography & Retouching with Easton Chang (Full Course)

Car Photography & Retouching with Easton Chang (Full Course)

Car Photography & Retouching with Easton Chang (Full Course)

Car Photography & Retouching with Easton Chang (Full Course)

Car Photography & Retouching with Easton Chang (Full Course)

Car Photography & Retouching with Easton Chang (Full Course)

Car Photography & Retouching with Easton Chang (Full Course)

Exclusive eLearning Videos ParRus-blogadd to bookmarks

Feel free to contact me PM
when links are dead or want any repost

Car Photography & Retouching with Easton Chang (Full Course)