Tags
Language
Tags

Desi Serna - Chord Progressions & Playing By Numbers

Posted By: ParRus
Desi Serna - Chord Progressions & Playing By Numbers

Desi Serna - Chord Progressions & Playing By Numbers
DVDRip | English | MP4 | 640 x 480 | AVC ~1127 kbps | 29.970 fps
AAC 132 Kbps 48.0 KHz | 2 channels | 02:47:08 | 1.47 GB
Genre: eLearning Video / Guitar lesson

This video program will show you how triads and chords are built from the major scale. You’ll come to understand the number sequence that is the most important concept in all of music. All of this is taught from a guitar player’s perspective using simple shapes and patterns on the fretboard.
Understand how chords are related and fit together, transpose instantly to new keys and new positions, and learn progressions to popular acoustic and electric guitar songs. The lessons are taught by music theory expert Desi Serna, and are based on his book, Fretboard Theory Chapter 6. For intermediate level players and up who are comfortable using barre chords.

also You can look my other last: Guitar Lessons-posts

General
Complete name : DVD 3 - Guitar Chord Progressions & Playing By Numbers.mp4
Format : MPEG-4
Format profile : Base Media / Version 2
Codec ID : mp42
File size : 1.47 GiB
Duration : 2h 47mn
Overall bit rate mode : Variable
Overall bit rate : 1 263 Kbps
Encoded date : UTC 2010-04-01 02:59:26
Tagged date : UTC 2010-04-01 12:09:45
Writing application : HandBrake 0.9.4 2009112300

Video
ID : 1
Format : AVC
Format/Info : Advanced Video Codec
Format profile : Main@L3
Format settings, CABAC : Yes
Format settings, ReFrames : 2 frames
Codec ID : avc1
Codec ID/Info : Advanced Video Coding
Duration : 2h 47mn
Duration_FirstFrame : 33ms
Bit rate : 1 127 Kbps
Width : 640 pixels
Height : 480 pixels
Display aspect ratio : 4:3
Frame rate mode : Constant
Frame rate : 29.970 fps
Color space : YUV
Chroma subsampling : 4:2:0
Bit depth : 8 bits
Scan type : Progressive
Bits/(Pixel*Frame) : 0.122
Stream size : 1.32 GiB (89%)
Writing library : x264 core 79 r1347 5ddd61b
Encoding settings : cabac=1 / ref=2 / deblock=1:0:0 / analyse=0x1:0x111 / me=hex / subme=6 / psy=1 / psy_rd=1.0:0.0 / mixed_ref=0 / me_range=16 / chroma_me=1 / trellis=0 / 8x8dct=0 / cqm=0 / deadzone=21,11 / chroma_qp_offset=-2 / threads=1 / nr=0 / decimate=1 / mbaff=0 / constrained_intra=0 / bframes=2 / b_pyramid=0 / b_adapt=1 / b_bias=0 / direct=1 / wpredb=0 / wpredp=2 / keyint=300 / keyint_min=30 / scenecut=40 / rc_lookahead=40 / rc=crf / mbtree=1 / crf=20.0 / qcomp=0.60 / qpmin=10 / qpmax=51 / qpstep=4 / ip_ratio=1.40 / aq=1:1.00
Encoded date : UTC 2010-04-01 02:59:26
Tagged date : UTC 2010-04-01 12:09:45
Color range : Limited
Color primaries : BT.601 NTSC
Transfer characteristics : BT.709
Matrix coefficients : BT.601

Audio
ID : 2
Format : AAC
Format/Info : Advanced Audio Codec
Format profile : LC
Codec ID : 40
Duration : 2h 47mn
Bit rate mode : Variable
Bit rate : 132 Kbps
Maximum bit rate : 159 Kbps
Channel(s) : 2 channels
Channel positions : Front: L R
Sampling rate : 48.0 KHz
Compression mode : Lossy
Stream size : 157 MiB (10%)
Title : Stereo
Encoded date : UTC 2010-04-01 02:59:26
Tagged date : UTC 2010-04-01 12:09:45

Menu
ID : 3
Codec ID : text
Duration : 2h 47mn
Encoded date : UTC 2010-04-01 02:59:26
Tagged date : UTC 2010-04-01 12:09:45
Bit rate mode : CBR
Screenshots

Desi Serna - Chord Progressions & Playing By Numbers

Desi Serna - Chord Progressions & Playing By Numbers

Desi Serna - Chord Progressions & Playing By Numbers

Desi Serna - Chord Progressions & Playing By Numbers

Desi Serna - Chord Progressions & Playing By Numbers

Exclusive eLearning Videos ParRus-blogadd to bookmarks

Desi Serna - Chord Progressions & Playing By Numbers