Subcategories

Fstoppers - The Cinematic Headshot with Dylan Patrick

Posted By: ParRus
Fstoppers - The Cinematic Headshot with Dylan Patrick

Fstoppers - The Cinematic Headshot with Dylan Patrick
WEBRip | English | MP4 + Project Files | 1920 x 1080 | AVC ~3749 Kbps | 23.976 fps
AAC | 157 Kbps | 48.0 KHz | 2 channels | ~5 hours | 8.51 GB
Genre: Video Tutorial / Photographing

Fstoppers has teamed up with the incredibly successful headshot photographer, Dylan Patrick to produce the 6 hour tutorial, The Cinematic Headshot. Dylan has become widely sought after in New York and Los Angeles for his unmistakably stylized portraits and actors headshots. In this tutorial Dylan will teach you his entire processes of coaching, lighting, and then retouching his pictures.
No Studio, No Problem

Within 1 year Dylan went from being a struggling actor/bar tender to a full time portrait photographer without ever using a studio. Managing natural light outside can be difficult but Dylan's lighting style brings the benefits of studio lighting out on location.

Learn About The Gear

Dylan has simplified his bag of gear into just 1 camera, 1 lens, 2 speedlights, 1 reflector, and 2 modifiers. Photographers on any budget will be able to easily afford the equipment necessary to shoot similar images.

Learn How To Light

Dylan's photography isn't about expensive gear, it's about the knowledge of how to use what you have. In this tutorial you will learn how to light in ideal lighting situations, extremely harsh lighting situations, and even at night. Dylan's techniques will help you produce repeatable results in any location at any time of day.

Learn How To Edit

50% of Dylan's signature look can be attributed to his coaching and lighting, the other 50% comes from his post production. This tutorial includes 4 different RAW files that you can use to follow along with Dylan as he works. After following along in Photoshop for over 3 hours with Dylan, you'll know everything necessary to edit your portraits at a world class level.

also You can find my other helpful photographing-posts
(if old file-links don't show activity, try copy-paste them to the address bar)

General
Complete name :Chapter 1.mp4
Format : MPEG-4
Codec ID : M4V (M4V /mp42/isom)
File size : 1.71 GiB
Duration : 1 h 4 min
Overall bit rate mode : Variable
Overall bit rate : 3 809 kb/s
Encoded date : UTC 2014-11-14 22:18:51
Tagged date : UTC 2014-11-14 22:19:20
TIM : 00:00:00:00
TSC : 24000
TSZ : 1001

Video
ID : 1
Format : AVC
Format/Info : Advanced Video Codec
Format profile : High@L4
Format settings : 2 Ref Frames
Format settings, CABAC : No
Format settings, RefFrames : 2 frames
Codec ID : avc1
Codec ID/Info : Advanced Video Coding
Duration : 1 h 4 min
Bit rate mode : Constant
Bit rate : 3 749 kb/s
Width : 1 920 pixels
Height : 1 080 pixels
Display aspect ratio : 16:9
Frame rate mode : Constant
Frame rate : 23.976 (24000/1001) FPS
Standard : NTSC
Color space : YUV
Chroma subsampling : 4:2:0
Bit depth : 8 bits
Scan type : Progressive
Bits/(Pixel*Frame) : 0.075
Stream size : 1.64 GiB (96%)
Language : English
Encoded date : UTC 2014-11-14 22:18:51
Tagged date : UTC 2014-11-14 22:18:51
Color range : Limited
Color primaries : BT.709
Transfer characteristics : BT.709
Matrix coefficients : BT.709

Audio
ID : 2
Format : AAC
Format/Info : Advanced Audio Codec
Format profile : LC
Codec ID : mp4a-40-2
Duration : 1 h 4 min
Source duration : 1 h 4 min
Bit rate mode : Variable
Bit rate : 157 kb/s
Maximum bit rate : 250 kb/s
Channel(s) : 2 channels
Channel positions : Front: L R
Sampling rate : 48.0 kHz
Frame rate : 46.875 FPS (1024 SPF)
Compression mode : Lossy
Stream size : 72.3 MiB (4%)
Source stream size : 72.3 MiB (4%)
Language : English
Encoded date : UTC 2014-11-14 22:18:51
Tagged date : UTC 2014-11-14 22:18:51

Screenshots

Fstoppers - The Cinematic Headshot with Dylan Patrick

Fstoppers - The Cinematic Headshot with Dylan Patrick

Fstoppers - The Cinematic Headshot with Dylan Patrick

Fstoppers - The Cinematic Headshot with Dylan Patrick

✅ Exclusive eLearning Videos ParRus-blogadd to bookmarks

Feel free to contact me PM
when links are dead or want any repost

Fstoppers - The Cinematic Headshot with Dylan Patrick