Subcategories

The Complete Python Course | Learn Python by Doing (2020)

Posted By: ParRus
The Complete Python Course | Learn Python by Doing (2020)

The Complete Python Course | Learn Python by Doing (2020)
WEBRip | English | MP4 | 1280 x 720 | AVC ~1015 kbps | 30 fps
AAC | 128 Kbps | 44.1 KHz | 2 channels | ~35 hours | 12.38 GB
Genre: eLearning Video / Development, Programming

Go from Beginner to Expert in Python by building projects. The best investment for your Python journey!
What you'll learn
From foundations to expert, learn about every major Python topic, working with Python 3.
Write professional-grade Pythonic code with all the best practices and avoiding common pitfalls.
Master Object-Oriented Programming and structure your Python programs like a professional.
Swiftly understand complex topics like decorators, algorithms, and asynchronous programming in Python.
Automate extracting data from websites using web scraping libraries like BeautifulSoup and Selenium.
Learn how to write desktop applications with Python and Tkinter.
Interact with REST APIs using Python and build a currency converter!
Develop a life-long love for programming with Python!

Requirements
Access to a computer with an internet connection. Everything else we use in the course is publicly available and we'll guide you through getting it.
There are no other requirements, besides getting started!

Description
Welcome to the Complete Python Course!

***Fully updated for 2020*** The course covers every major Python topic (including Object-Oriented Programming, Web Scraping, and even GUI development), and now includes even more content…!

NEW CONTENT:

Control your browser using Selenium, to scrape websites or even fill in forms!

Learn to interact with REST APIs and build a currency exchange program

Create desktop GUIs using Tkinter, so your users can work with your applications very easily

Start working with unit testing in Python by learning about the unittest library

We've also completely re-recorded the course's introductory Python material… so it’s even clearer and more straightforward!



This course will take you from beginner to expert in Python, easily and smartly. We've crafted every piece of content to be concise and straightforward, while never leaving you confused. This course will dive right into Python and get you productive from the very beginning.

This is the best investment you can make in your Python journey.

Why Learn Python?

Over the last few years, Python has become more and more popular. Demand for Python is booming in the job market and it is a skill that can help you enter some of the most exciting industries, including data science, web applications, home automation and many more. Python is one of the "most loved” and “most wanted” programming languages according to recent industry surveys. If people are not using Python already, they want to start using Python.

This course will make it easy for you to learn Python and get ahead of your competition.

Why Choose THIS Course?

You will:

Get a broader and deeper experience in Python than with any other Udemy course on the market.

Start at zero and become an expert whilst learning all about the inner workings of Python.

Learn how to write professional Python code like a professional Python developer.

Develop a long-lasting love for Python and programming by creating good programming habits.

Explore the wider possibilities of what you can do with Python, including databases, web development and web scraping.

Become job-ready by learning about best practices, Selenium, unit testing, and all of the major Python topics.

Who Is This Course For?

Beginners who have never programmed before.

Programmers with experience in other languages who want to kickstart their Python programming.

Programmers who know some Python but want to round off their skills and become truly proficient.

What Am I Going to Get From This Course?

Lifetime access to over 250 lectures covering all aspects of Python, from the foundations to advanced concepts.

An interactive screencast video from every lecture AND complete, written notes and code for you to read and refer back to you as you progress through the course.

Milestone projects for you to complete throughout the course. These provide a challenge and an opportunity for you to apply what you've learned. We always go over the code after to show you how we would tackle them.

Guidance on common pitfalls and best practices including how to make your code "Pythonic" (looking like professional code), Object-Oriented Programming, database interactions, and more.

Quizzes and tests for you to check your understanding.

High-quality help and support. In the last year alone we've answered over 3000 student questions. We don’t leave a single question unanswered.

Don't Wait! Join the Course and Begin Coding in Python today!

You'll have 30 days to change your mind and get your money back, with absolutely no questions asked AND you'll get to keep all the course notes and code as a thank you for trying the course out.

Who this course is for:
Beginner programmers who want to get into one of the most popular and loved languages in the world
Programmers from other languages who want to kickstart their Python journey
Python programmers who want to refresh their skills and tackle advanced topics like algorithms and asynchronous programming

also You can find my other helpful programming-posts
(if old file-links don't show activity, try copy-paste them to the address bar)

General
Complete name : 3. More complex HTML parsing.mp4
Format : MPEG-4
Format profile : Base Media
Codec ID : isom (isom/iso2/avc1/mp41)
File size : 184 MiB
Duration : 22 min 18 s
Overall bit rate : 1 152 kb/s
Writing application : Lavf58.12.100

Video
ID : 1
Format : AVC
Format/Info : Advanced Video Codec
Format profile : Main@L3.1
Format settings : CABAC / 4 Ref Frames
Format settings, CABAC : Yes
Format settings, RefFrames : 4 frames
Codec ID : avc1
Codec ID/Info : Advanced Video Coding
Duration : 22 min 18 s
Bit rate : 1 015 kb/s
Nominal bit rate : 3 000 kb/s
Width : 1 280 pixels
Height : 720 pixels
Display aspect ratio : 16:9
Frame rate mode : Constant
Frame rate : 30.000 FPS
Color space : YUV
Chroma subsampling : 4:2:0
Bit depth : 8 bits
Scan type : Progressive
Bits/(Pixel*Frame) : 0.037
Stream size : 162 MiB (88%)
Writing library : x264 core 148
Encoding settings : cabac=1 / ref=3 / deblock=1:-1:-1 / analyse=0x1:0x111 / me=umh / subme=6 / psy=1 / psy_rd=1.00:0.15 / mixed_ref=1 / me_range=16 / chroma_me=1 / trellis=1 / 8x8dct=0 / cqm=0 / deadzone=21,11 / fast_pskip=1 / chroma_qp_offset=-3 / threads=22 / lookahead_threads=3 / sliced_threads=0 / nr=0 / decimate=1 / interlaced=0 / bluray_compat=0 / constrained_intra=0 / bframes=3 / b_pyramid=2 / b_adapt=1 / b_bias=0 / direct=1 / weightb=1 / open_gop=0 / weightp=2 / keyint=60 / keyint_min=6 / scenecut=0 / intra_refresh=0 / rc_lookahead=60 / rc=cbr / mbtree=1 / bitrate=3000 / ratetol=1.0 / qcomp=0.60 / qpmin=0 / qpmax=69 / qpstep=4 / vbv_maxrate=3000 / vbv_bufsize=6000 / nal_hrd=none / filler=0 / ip_ratio=1.40 / aq=1:1.00

Audio
ID : 2
Format : AAC
Format/Info : Advanced Audio Codec
Format profile : LC
Codec ID : mp4a-40-2
Duration : 22 min 18 s
Bit rate mode : Constant
Bit rate : 128 kb/s
Channel(s) : 2 channels
Channel positions : Front: L R
Sampling rate : 44.1 kHz
Frame rate : 43.066 FPS (1024 SPF)
Compression mode : Lossy
Stream size : 20.4 MiB (11%)
Default : Yes
Alternate group : 1
Screenshots

The Complete Python Course | Learn Python by Doing (2020)

The Complete Python Course | Learn Python by Doing (2020)

The Complete Python Course | Learn Python by Doing (2020)

The Complete Python Course | Learn Python by Doing (2020)

The Complete Python Course | Learn Python by Doing (2020)

✅ Exclusive eLearning Videos ParRus-blogadd to bookmarks
Feel free to contact me PM
when links are dead or want any repost

The Complete Python Course | Learn Python by Doing (2020)