Tags
Language
Tags
June 2024
Su Mo Tu We Th Fr Sa
26 27 28 29 30 31 1
2 3 4 5 6 7 8
9 10 11 12 13 14 15
16 17 18 19 20 21 22
23 24 25 26 27 28 29
30 1 2 3 4 5 6

Ryan Deiss - Digital Marketer - Content & Commerce Summit 2016

Posted By: ParRus
Ryan Deiss - Digital Marketer - Content & Commerce Summit 2016

Ryan Deiss - Digital Marketer - Content & Commerce Summit 2016
WEBRip | English | MP4 | 1280 x 720 | AVC ~2126 kbps | 29.970 fps
AAC | 256 Kbps | 48.0 KHz | 2 channels | 23:57:08 | 20.33 GB
Genre: eLearning Video / Business, Sales, Marketing

September 15th - 17th, 2016 In Orlando, Florida Get ready for three full days of content and networking, where you'll learn what's working now in e-commerce and digital media, and how you can combine them to grow your business.
There's a Fundamental Shift Taking Place
The Internet was supposed to make things easier. It didn't.

Today, media brands are finding it harder than ever to monetize through advertising alone, and at the same time commerce brands are watching their margins shrink and their acquisition costs skyrocket.

The problem is massive, and both new and established brands are understandably concerned.

But is there a solution?

There is, and we believe we've found it.

To win in 2016, your brand must strike a balance between "content" and "commerce."

Introducing Content & Commerce Summit!

Content & Commerce Summit is unique because it brings digital media and ecommerce brands together, in the same room, to network, share ideas and discover new opportunities.

And why are we doing this?

Because commerce needs media.and media needs commerce.

To put it another way, media companies (think bloggers, podcasters, news sites, content marketers, etc.) are great at aggregating attention, but they often fall short in MONETIZING that attention.

Commerce companies (i.e. ecommerce stores, Amazon sellers, and even traditional brick and mortar retailers), on the other hand, are usually great at monetization.they just lack the systems and know-how to attract attention and build communities around their brands.

And that's why this event was born.
We wanted to find out what would happen when the best media companies and the best commerce brands get together to:

Discuss (and debate) the latest and most innovative business models across multiple verticals
Share groundbreaking trends and technologies, and.
Collaborate and forge truly innovative partnerships and joint ventures

That's why Content & Commerce Summit was created, and now you're invited to be a part of it.

You're In Good Company.

We launched Content & Commerce Summit, because we are "content and commerce," and we want to meet and learn from other top media and ecommerce brands.

Our company, NativeCommerce.com, is responsible for some of the largest and most successful niche media and ecommerce sites on the web. Here's an abbreviated list of just some of our properties.

At this event, we're going to be "opening the kimono" and sharing exactly what's working (and what isn't working) in our different businesses. We've also asked some friends and colleagues who we know are doing innovative and exciting things to share their best strategies and tactics, too.

Some of the names you'll recognize, but many will be new. All of them, however, will be bringing their best, and what they have to share with you very just may change the direction of your company forever.

Value: $995.00
More Info: Salepage

and You can watch my other last: Business-posts

General
Complete name : 02 - How WhitePlum.com Increased Revenue 3X Using Personalization.mp4
Format : MPEG-4
Format profile : Base Media
Codec ID : isom
File size : 300 MiB
Duration : 17mn 25s
Overall bit rate : 2 406 Kbps
Season : 0
Movie name : 02 - How WhitePlum.com Increased Revenue 3X Using Personalization
Part : 0


Video
ID : 1
Format : AVC
Format/Info : Advanced Video Codec
Format profile : High@L3.1
Format settings, CABAC : Yes
Format settings, ReFrames : 4 frames
Codec ID : avc1
Codec ID/Info : Advanced Video Coding
Duration : 17mn 25s
Bit rate : 2 126 Kbps
Width : 1 280 pixels
Height : 720 pixels
Display aspect ratio : 16:9
Frame rate mode : Constant
Frame rate : 29.970 fps
Color space : YUV
Chroma subsampling : 4:2:0
Bit depth : 8 bits
Scan type : Progressive
Bits/(Pixel*Frame) : 0.077
Stream size : 267 MiB (89%)
Writing library : x264 core 129
Encoding settings : cabac=1 / ref=3 / deblock=1:0:0 / analyse=0x3:0x113 / me=hex / subme=7 / psy=1 / psy_rd=1.00:0.00 / mixed_ref=1 / me_range=16 / chroma_me=1 / trellis=1 / 8x8dct=1 / cqm=0 / deadzone=21,11 / fast_pskip=1 / chroma_qp_offset=-2 / threads=9 / lookahead_threads=1 / sliced_threads=0 / nr=0 / decimate=1 / interlaced=0 / bluray_compat=0 / constrained_intra=0 / bframes=3 / b_pyramid=2 / b_adapt=1 / b_bias=0 / direct=1 / weightb=1 / open_gop=0 / weightp=2 / keyint=250 / keyint_min=25 / scenecut=40 / intra_refresh=0 / rc_lookahead=40 / rc=abr / mbtree=1 / bitrate=2126 / ratetol=1.0 / qcomp=0.60 / qpmin=0 / qpmax=69 / qpstep=4 / ip_ratio=1.40 / aq=1:1.00

Audio
ID : 2
Format : AAC
Format/Info : Advanced Audio Codec
Format profile : LC
Codec ID : 40
Duration : 17mn 25s
Bit rate mode : Constant
Bit rate : 256 Kbps
Channel(s) : 2 channels
Channel positions : Front: L R
Sampling rate : 48.0 KHz
Compression mode : Lossy
Stream size : 31.9 MiB (11%)

Menu
ID : 3
Codec ID : text
Duration : 17mn 25s
Encoded date : UTC 2017-01-24 18:23:41
Tagged date : UTC 2017-01-24 18:23:41
00:00:00.000 : Chapter 1
Screenshots

Ryan Deiss - Digital Marketer - Content & Commerce Summit 2016

Ryan Deiss - Digital Marketer - Content & Commerce Summit 2016

Ryan Deiss - Digital Marketer - Content & Commerce Summit 2016

Ryan Deiss - Digital Marketer - Content & Commerce Summit 2016

Ryan Deiss - Digital Marketer - Content & Commerce Summit 2016

Ryan Deiss - Digital Marketer - Content & Commerce Summit 2016

Ryan Deiss - Digital Marketer - Content & Commerce Summit 2016

Exclusive eLearning Videos ParRus-blogadd to bookmarks

Ryan Deiss - Digital Marketer - Content & Commerce Summit 2016

Ryan Deiss - Digital Marketer - Content & Commerce Summit 2016