Tags
Language
Tags

Ray Edwards - Copywriting Academy 2

Posted By: ParRus
Ray Edwards - Copywriting Academy 2

Ray Edwards - Copywriting Academy 2
WEBRip | English | MP4 + MP3 + PDF Guides | 1920 x 1076 | AVC ~4988 Kbps | 30 fps
AAC | 148 Kbps | 44.1 KHz | 2 channels | ~7 hours | 13.21 GB
Genre: eLearning Video / Business, Sales, Marketing

A lot of the courses I’ve recently added here have been about copywriting. As the name of this course already reveals – Copywriting Acadmy – this one is also about the same topic. I do it on purpose. Copywriting is one of the most important skills you could learn to make a killing online. And Ray Edwards is one of the best guys to learn from. So stay with me – I’ll mix it up more in the future.
Lauded as a legend in the industry, Ray Edwards has a proven program for creating cash flow through persuasive copy without sounding “salesy.”

I’ve been on the receiving end of his offers for few years now and it’s true. He’s more of a “dad” giving you advice.

People love to buy, but hate to be sold.

He’s also written for the likes of Tony Robbins and Jack Canfield.

What is the Copywriting Academy?
Ray’s lessons show you there’s more to selling a product than simply having a website. And there’s no other area of marketing that can bring you the results you seek than better writing.

If you’ve tried to sell online before, then you know it can be a dissapointment. You’ve prepped your landing pages, message etc, but people just aren’t converting.

Most likely you think people just aren’t interested in your offer. Most likely you’ll give up.

But you shouldn’t.

It’s the job of the copy to get them interested. It’s your job to create an irresistible offer – which is one thing that Ray talks about as well inside Copywriting Academy.

Once you learn the stuff Ray teaches and you start making sales, your life changes. You see the numbers popping up in your bank account – one of the best feelings in the world. After hustling, experiencing all kinds of setbacks, dissapointment..and finally – IT WORKS. That feeling is worth every penny.

The program features 10 online sessions, including bonus lessons that allow you to go at your own pace.

The cost, or investment as Ray calls it, is $1,997, which can be paid in a lump sum or in four installments of $597.
The investment also includes two free tickets to a three-day live session that immerses participants in the process. They are expected to “write until tears flow.”

This top program comes with a full money-back guarantee if you aren’t satisfied after 30 days.

To Who
Entrepreneurs and small business owners that want to write better copy
Freelancers that want to write copy for other people
If you’re planning to do a product launch
You want to hire copywriters, but want to know the craft enough to understand who is good and who’s not
Deliverables
Copywriting Quick-start (Write Your Cash-Generating Copy in About an hour)
The “Secret Skeleton” of Million-Dollar Copy ( The Universal Copy Blueprint that sells Your Products Like Crazy)
Copy That Attracts Readers Like Magic (Headlines and Sub-Headlines)
Inbox Money Magic (E-mail Writing That Makes More Money)
The Fascination Factor (How To Write Better Bullet Points)
Irresistible Offers (The One Thing That Makes Selling Unnecessary)
Write Guarantees That Shock, Awe and Sell ( How to Get Your Customers To Stop Hesitating)
Closing Copy (How To Ask For A Sale)
The Secrets of Product Launch Copy (Copy for PLF – style of launch)
Video Copy Magic (How To Write Copy for Videos, Webinars, Livecasts)
Current bonus lessons:

Your First 1,000 Subscribers
Idea to Income in 30 Days or Less
Rapid Copywriting
License to Steal

Price: 1997$ or 4 x 597$

Contents:
Session 1 Copywriting Quickstart - 5 lessons
Session 2 The “Secret Skeleton” of Million-Dollar Copy - 7 lessons
Session 3 Copy That Attracts Readers Like Magic - 6 lessons
Session 4 Inbox Money Magic - 7 lessons
Session 5 The Fascination Factor - 7 lessons
Session 6 Irresistible Offers - 4 lessons
Session 7 Write Guarantees That Shock, Awe and Sell - 4 lessons
Session 8 Closing Copy - 8 lessons
Session 9 The Secrets of Product Launch Copy - 6 lessons
Session 10 Video Copy Magic - 5 lessons

BONUSES
Bonus Module: Copywriting Invisible Template
Ultimate Copywriting Templates
How To Make 120K When Attending Live Events
The Six Figure Second Income
Evernote Swipe File Hacks
Swipe File of the Month Club
Mind-Mapping the Perfect Sales Letter
Writing A Winning Fundraising Letter
License To Steal
Coaching Calls

also You can find my other last: Business-posts

General
Complete name : CWA_3.6_final.mp4
Format : MPEG-4
Format profile : Base Media / Version 2
Codec ID : mp42 (isom/iso2/avc1/mp41)
File size : 423 MiB
Duration : 11 min 29 s
Overall bit rate mode : Variable
Overall bit rate : 5 142 kb/s
Encoded date : UTC 2017-04-02 21:14:08
Tagged date : UTC 2017-04-02 21:14:08
Writing application : HandBrake 0.10.5 2016021100

Video
ID : 1
Format : AVC
Format/Info : Advanced Video Codec
Format profile : Main@L4
Format settings : CABAC / 4 Ref Frames
Format settings, CABAC : Yes
Format settings, RefFrames : 4 frames
Codec ID : avc1
Codec ID/Info : Advanced Video Coding
Duration : 11 min 29 s
Bit rate : 4 988 kb/s
Width : 1 920 pixels
Height : 1 076 pixels
Display aspect ratio : 16:9
Frame rate mode : Constant
Frame rate : 30.000 FPS
Color space : YUV
Chroma subsampling : 4:2:0
Bit depth : 8 bits
Scan type : Progressive
Bits/(Pixel*Frame) : 0.080
Stream size : 410 MiB (97%)
Writing library : x264 core 142 r2479 dd79a61
Encoding settings : cabac=1 / ref=1 / deblock=1:0:0 / analyse=0x1:0x111 / me=hex / subme=2 / psy=1 / psy_rd=1.00:0.00 / mixed_ref=0 / me_range=16 / chroma_me=1 / trellis=0 / 8x8dct=0 / cqm=0 / deadzone=21,11 / fast_pskip=1 / chroma_qp_offset=0 / threads=6 / lookahead_threads=2 / sliced_threads=0 / nr=0 / decimate=1 / interlaced=0 / bluray_compat=0 / constrained_intra=0 / bframes=3 / b_pyramid=2 / b_adapt=1 / b_bias=0 / direct=1 / weightb=1 / open_gop=0 / weightp=1 / keyint=300 / keyint_min=30 / scenecut=40 / intra_refresh=0 / rc_lookahead=10 / rc=crf / mbtree=1 / crf=17.0 / qcomp=0.60 / qpmin=0 / qpmax=69 / qpstep=4 / vbv_maxrate=20000 / vbv_bufsize=25000 / crf_max=0.0 / nal_hrd=none / filler=0 / ip_ratio=1.40 / aq=1:1.00
Encoded date : UTC 2017-04-02 21:14:08
Tagged date : UTC 2017-04-02 21:14:08
Color range : Limited
Color primaries : BT.709
Transfer characteristics : BT.709
Matrix coefficients : BT.709

Audio
ID : 2
Format : AAC
Format/Info : Advanced Audio Codec
Format profile : LC
Codec ID : mp4a-40-2
Duration : 11 min 28 s
Bit rate mode : Variable
Bit rate : 148 kb/s
Channel(s) : 2 channels
Channel positions : Front: L R
Sampling rate : 44.1 kHz
Frame rate : 43.066 FPS (1024 SPF)
Compression mode : Lossy
Stream size : 12.2 MiB (3%)
Title : Stereo / Stereo
Default : Yes
Alternate group : 1
Encoded date : UTC 2017-04-02 21:14:08
Tagged date : UTC 2017-04-02 21:14:08

Screenshots

Ray Edwards - Copywriting Academy 2

Ray Edwards - Copywriting Academy 2

Ray Edwards - Copywriting Academy 2

Ray Edwards - Copywriting Academy 2

Exclusive eLearning Videos ParRus-blogadd to bookmarks

Ray Edwards - Copywriting Academy 2