Tags
Language
Tags

Coursera - Data Science Fundamentals with Python and SQL Specialization

Posted By: ParRus
Coursera - Data Science Fundamentals with Python and SQL Specialization

Coursera - Data Science Fundamentals with Python and SQL Specialization
WEBRip | English | MP4 | 960 x 540 | AVC ~27.5 kbps | 30 fps
AAC | 128 Kbps | 44.1 KHz | 2 channels | Subs: English (.srt) | ~7 hours | 745 MB
Genre: eLearning Video / Data Science, Python, SQL

Data science is one of the hottest professions of the decade, and the demand for data scientists who can analyze data and communicate results to inform data driven decisions has never been greater. This Specialization from IBM will help anyone interested in pursuing a career in data science by teaching them fundamental skills to get started in this in-demand field.
The specialization consists of 4 self-paced online courses that will provide you with the foundational skills required for Data Science, including open source tools and libraries, Python, Statistical Analysis, SQL, and relational databases. You’ll learn these data science pre-requisites through hands-on practice using real data science tools and real-world data sets.

Upon successfully completing these courses, you will have the practical knowledge and experience to delve deeper in Data Science and work on more advanced Data Science projects.

also You can find my other helpful Coursera-posts
(if old file-links don't show activity, try copy-paste them to the address bar)

General
Complete name : 01_functions.mp4
Format : MPEG-4
Format profile : Base Media
Codec ID : isom (isom/iso2/avc1/mp41)
File size : 15.9 MiB
Duration : 13 min 31 s
Overall bit rate : 164 kb/s
Writing application : Lavf58.29.100

Video
ID : 1
Format : AVC
Format/Info : Advanced Video Codec
Format profile : Main@L3.1
Format settings : CABAC / 4 Ref Frames
Format settings, CABAC : Yes
Format settings, RefFrames : 4 frames
Codec ID : avc1
Codec ID/Info : Advanced Video Coding
Duration : 13 min 31 s
Bit rate : 27.5 kb/s
Width : 960 pixels
Height : 540 pixels
Display aspect ratio : 16:9
Frame rate mode : Constant
Frame rate : 30.000 FPS
Color space : YUV
Chroma subsampling : 4:2:0
Bit depth : 8 bits
Scan type : Progressive
Bits/(Pixel*Frame) : 0.002
Stream size : 2.66 MiB (17%)
Writing library : x264 core 157
Encoding settings : cabac=1 / ref=3 / deblock=1:0:0 / analyse=0x1:0x111 / me=hex / subme=7 / psy=1 / psy_rd=1.00:0.00 / mixed_ref=1 / me_range=16 / chroma_me=1 / trellis=1 / 8x8dct=0 / cqm=0 / deadzone=21,11 / fast_pskip=1 / chroma_qp_offset=-2 / threads=12 / lookahead_threads=2 / sliced_threads=0 / nr=0 / decimate=1 / interlaced=0 / bluray_compat=0 / constrained_intra=0 / bframes=3 / b_pyramid=2 / b_adapt=1 / b_bias=0 / direct=1 / weightb=1 / open_gop=0 / weightp=2 / keyint=250 / keyint_min=25 / scenecut=40 / intra_refresh=0 / rc_lookahead=40 / rc=crf / mbtree=1 / crf=28.0 / qcomp=0.60 / qpmin=0 / qpmax=69 / qpstep=4 / ip_ratio=1.40 / aq=1:1.00
Language : English

Audio
ID : 2
Format : AAC
Format/Info : Advanced Audio Codec
Format profile : LC
Codec ID : mp4a-40-2
Duration : 13 min 31 s
Duration_LastFrame : -22 ms
Bit rate mode : Constant
Bit rate : 128 kb/s
Channel(s) : 2 channels
Channel positions : Front: L R
Sampling rate : 44.1 kHz
Frame rate : 43.066 FPS (1024 SPF)
Compression mode : Lossy
Stream size : 12.4 MiB (78%)
Language : English
Default : Yes
Alternate group : 1
Screenshots

Coursera - Data Science Fundamentals with Python and SQL Specialization

Coursera - Data Science Fundamentals with Python and SQL Specialization

Coursera - Data Science Fundamentals with Python and SQL Specialization

Coursera - Data Science Fundamentals with Python and SQL Specialization

Coursera - Data Science Fundamentals with Python and SQL Specialization

✅ Exclusive eLearning Videos ParRus-blogadd to bookmarks
Feel free to contact me PM
when links are dead or want any repost

Coursera - Data Science Fundamentals with Python and SQL Specialization