Tags
Language
Tags
June 2024
Su Mo Tu We Th Fr Sa
26 27 28 29 30 31 1
2 3 4 5 6 7 8
9 10 11 12 13 14 15
16 17 18 19 20 21 22
23 24 25 26 27 28 29
30 1 2 3 4 5 6

Metal Method - Easy Guitar Modes Package with Sarah Spisak (2017)

Posted By: ParRus
Metal Method - Easy Guitar Modes Package with Sarah Spisak (2017)

Metal Method - Easy Guitar Modes Package
WEBRip | English | MP4 + PDF tabs + MP3 jam tracks | 1280 x 720 | AVC ~5527 kbps | 29.970 fps
AAC 192 Kbps 48.0 KHz | 2 channels | 03:11:24 | 7.65 GB
Genre: eLearning Video / Guitar lesson

Sarah Spisak has been making music theory fun and accessible for countless guitarists over the years. Her ground-breaking “Melodic Principles” course briefly covered a nine-note block system for mastering the modes and covering the entire fretboard with minimal time and effort. Now she has expanded on this innovative method and packed the course with fun-to-play exercises, solos and backing tracks.
Simple system is based on a basic pattern you can learn right away

-Move this pattern to other keys and octaves
-Change just one note, link it to the first pattern
-Quickly learn to cover large areas of the fretboard

For Players at Different Skill Levels

-Easy-to-follow on-screen animated tab
-Simple patterns
-Clear diagrams
-Examples played at 50bpm (that’s really slow!)
-Simple solos for beginners
-More advanced solos for intermediate players

Here's What You Get

*Clear instruction videos
*Tab PDFs
*Guitar Pro files
*23 Backing tracks
*Instructor support via forum and e-mail

You Will Learn…

-Seven modes
-The unique sounds of these modes
-Pentatonic shapes “hiding” in the diatonic patterns
-Linking patterns and moving them to other keys and octaves
-Aggressive Phrygian riffs
-Smooth legato licks
-Several complete musical pieces and solos
-Common minor progressions and how to play over them
-The circle of fourths and the “Power Metal” sound
-Standard jazz progression (ii-V-I)
-Modal harmony
-The mode spectrum
…and more!

also You can look my other last: Guitar Lessons-posts

General
Complete name : Easy_Guitar_Modes_Lesson_Seven.mp4
Format : MPEG-4
Format profile : Base Media / Version 2
Codec ID : mp42
File size : 1.27 GiB
Duration : 31mn 47s
Overall bit rate mode : Variable
Overall bit rate : 5 722 Kbps
Encoded date : UTC 2016-10-16 20:32:33
Tagged date : UTC 2016-10-16 20:32:33
©TIM : 00;00;19;12

Video
ID : 1
Format : AVC
Format/Info : Advanced Video Codec
Format profile : Main@L3.2
Format settings, CABAC : Yes
Format settings, ReFrames : 3 frames
Codec ID : avc1
Codec ID/Info : Advanced Video Coding
Duration : 31mn 47s
Bit rate : 5 527 Kbps
Width : 1 280 pixels
Height : 720 pixels
Display aspect ratio : 16:9
Frame rate mode : Constant
Frame rate : 29.970 fps
Standard : NTSC
Color space : YUV
Chroma subsampling : 4:2:0
Bit depth : 8 bits
Scan type : Progressive
Bits/(Pixel*Frame) : 0.200
Stream size : 1.23 GiB (97%)
Language : English
Encoded date : UTC 2016-10-16 20:32:33
Tagged date : UTC 2016-10-16 20:32:33
Color range : Limited

Audio
ID : 2
Format : AAC
Format/Info : Advanced Audio Codec
Format profile : LC
Codec ID : 40
Duration : 31mn 47s
Source duration : 31mn 47s
Bit rate mode : Variable
Bit rate : 192 Kbps
Maximum bit rate : 298 Kbps
Channel(s) : 2 channels
Channel positions : Front: L R
Sampling rate : 48.0 KHz
Compression mode : Lossy
Stream size : 43.1 MiB (3%)
Source stream size : 43.1 MiB (3%)
Language : English
Encoded date : UTC 2016-10-16 20:32:33
Tagged date : UTC 2016-10-16 20:32:33
Screenshots

Metal Method - Easy Guitar Modes Package with Sarah Spisak (2017)

Metal Method - Easy Guitar Modes Package with Sarah Spisak (2017)

Metal Method - Easy Guitar Modes Package with Sarah Spisak (2017)

Exclusive eLearning Videos ParRus-blogadd to bookmarks

Metal Method - Easy Guitar Modes Package with Sarah Spisak (2017)