Tags
Language
Tags

Ethereum and Solidity: The Complete Developer's Guide (6/2020)

Posted By: ParRus
Ethereum and Solidity: The Complete Developer's Guide (6/2020)

Ethereum and Solidity: The Complete Developer's Guide
WEBRip | English | MP4 + Project Files | 1920 x 1080 | AVC ~1994 kbps | 30 fps
AAC | 62.7 Kbps | 48.0 KHz | 2 channels | Subs: English (.srt) | ~24 hours | 13.25 GB
Genre: eLearning Video / Web Development, Ethereum

Use Ethereum, Solidity, and Smart Contracts to build production-ready apps based on the blockchain
What you'll learn
Understand the why engineers would want to create an app with Ethereum
Build compelling blockchain applications using the Ethereum Blockchain
Design, test, and deploy secure Smart Contracts
Learn the true purpose and capabilities of Ethereum and Solidity
Use the latest version of Ethereum development tools (Web3 v1.0)
See practical examples to comprehend what the blockchain and mining are

Requirements
Basic Knowledge of Javascript and NPM
A Mac, PC, or Linux Machine

Description
Smart Contracts? They're here. The Ethereum Blockchain? Covered. Solidity? Yep!

There can be no understating it: Ethereum and Blockchain technology is the most disruptive force in years. Companies cannot hire developers who understand blockchain technologies fast enough, but there are a tiny number of resources published to help you truly understand what blockchains are used for, let alone build apps with them. That's the purpose of this course: to be the best resource online for learning about Ethereum, blockchains, and how to build apps with this new technology.

The development community is still figuring out the best way to use Ethereum in the creation of new and exciting apps. I spent a tremendous amount of time to research and create best practice for interfacing with Ethereum from Javascript. I can't overstate it enough; this course will show you the best and most easily repeatable patterns for creating production-ready apps with Ethereum.

What tools and libraries are used?

The Ethereum tech ecosystem is in constant change. Don't be fooled by other courses that mention how you'll learn a dozen different libraries! Every library that you'll use with Ethereum breaks and is deprecated on a near-weekly basis! Instead, this course will teach you how to assemble your own boilerplate package to develop, compile, and test Smart Contracts. By learning the core technologies, you'll be prepared to adjust to Ethereum no matter how the ecosystem changes.

What is Ethereum?

Ethereum is a cryptocurrency much like Bitcoin, and it has been heralded as Bitcoins successor. Whereas Bitcoin currently has issues scaling with an increasing backlog of transactions, Ethereum is poised to surpass Bitcoin in performance, popularity, and value. Ethereum was created to help developers like you create applications focused around transferring money or value from one party to another.

What is Solidity?

Solidity is a programming language for writing Smart Contracts. Essentially, think of it as a way to control a bank account with code. With Solidity, we can write applications that simulate a crowd funding campaign, a lottery, a loan, or any other type of financial instrument. Don't be intimidated by learning 'another' programming language; Solidity is known to be quite similar to Javascript and exceptionally easy to pick up for anyone who has previous JS experience. This course will give you all the tools you need to master Solidity.

Who this course is for:
Programmers looking to leverage blockchain technology for advanced apps
Engineers who want to understand Ethereum and how to build apps with it

also You can find my other helpful Programming-posts
(if old file-links don't show activity, try copy-paste them to the address bar)

General
Complete name : 110 The Request Struct.mp4
Format : MPEG-4
Format profile : Base Media
Codec ID : isom (isom/iso2/avc1/mp41)
File size : 132 MiB
Duration : 8 min 58 s
Overall bit rate : 2 063 kb/s
Writing application : Lavf58.45.100

Video
ID : 1
Format : AVC
Format/Info : Advanced Video Codec
Format profile : Main@L4
Format settings : CABAC / 4 Ref Frames
Format settings, CABAC : Yes
Format settings, RefFrames : 4 frames
Format settings, GOP : M=4, N=60
Codec ID : avc1
Codec ID/Info : Advanced Video Coding
Duration : 8 min 58 s
Bit rate : 1 994 kb/s
Nominal bit rate : 6 400 kb/s
Width : 1 920 pixels
Height : 1 080 pixels
Display aspect ratio : 16:10
Frame rate mode : Constant
Frame rate : 30.000 FPS
Color space : YUV
Chroma subsampling : 4:2:0
Bit depth : 8 bits
Scan type : Progressive
Bits/(Pixel*Frame) : 0.032
Stream size : 128 MiB (97%)
Writing library : x264 core 148
Encoding settings : cabac=1 / ref=3 / deblock=1:0:0 / analyse=0x1:0x111 / me=umh / subme=6 / psy=1 / psy_rd=1.00:0.00 / mixed_ref=1 / me_range=16 / chroma_me=1 / trellis=1 / 8x8dct=0 / cqm=0 / deadzone=21,11 / fast_pskip=1 / chroma_qp_offset=-2 / threads=24 / lookahead_threads=4 / sliced_threads=0 / nr=0 / decimate=1 / interlaced=0 / bluray_compat=0 / constrained_intra=0 / bframes=3 / b_pyramid=2 / b_adapt=1 / b_bias=0 / direct=1 / weightb=1 / open_gop=0 / weightp=2 / keyint=60 / keyint_min=6 / scenecut=0 / intra_refresh=0 / rc_lookahead=60 / rc=cbr / mbtree=1 / bitrate=6400 / ratetol=1.0 / qcomp=0.60 / qpmin=0 / qpmax=69 / qpstep=4 / vbv_maxrate=6400 / vbv_bufsize=12800 / nal_hrd=none / filler=0 / ip_ratio=1.40 / aq=1:1.00

Audio
ID : 2
Format : AAC
Format/Info : Advanced Audio Codec
Format profile : HE-AAC / LC
Format settings : Implicit
Codec ID : mp4a-40-2
Duration : 8 min 57 s
Bit rate mode : Constant
Bit rate : 62.7 kb/s
Channel(s) : 2 channels
Channel positions : Front: L R
Sampling rate : 48.0 kHz / 24.0 kHz
Frame rate : 23.438 FPS (1024 SPF)
Compression mode : Lossy
Stream size : 4.02 MiB (3%)
Default : Yes
Alternate group : 1
Screenshots

Ethereum and Solidity: The Complete Developer's Guide (6/2020)

Ethereum and Solidity: The Complete Developer's Guide (6/2020)

Ethereum and Solidity: The Complete Developer's Guide (6/2020)

Ethereum and Solidity: The Complete Developer's Guide (6/2020)

Ethereum and Solidity: The Complete Developer's Guide (6/2020)

✅ Exclusive eLearning Videos ParRus-blogadd to bookmarks
Feel free to contact me PM
when links are dead or want any repost

Ethereum and Solidity: The Complete Developer's Guide (6/2020)