Tags
Language
Tags
January 2023
Su Mo Tu We Th Fr Sa
1 2 3 4 5 6 7
8 9 10 11 12 13 14
15 16 17 18 19 20 21
22 23 24 25 26 27 28
29 30 31 1 2 3 4

Aldo Colombini - A Few Good Cards

Posted By: ParRus
Aldo Colombini - A Few Good Cards

Aldo Colombini - A Few Good Cards
DVDRip | English | AVI | 720 x 540 | XviD ~2484 kbps | 29.970 fps
MP3 | 192 Kbps | 44.1 KHz | 2 channels | 01:58:18 | 2.21 GB
Genre: eLearning Video / Tricks, illusion

Packet Tricks are always popular. Using only a few cards you can perform very strong, baffling, visual magic. Here you have ten packet tricks from the world's top 'packet trick' experts. Japanese Aces (Shigeo Futagawa): A real fooler where you and the spectator mix the Aces three times (the last one face up and face down) but the Aces always separate! Poor Man's Monte (Richard Vollmer): A fun-to-watch-fun-to-do Monte type routine using only four regular cards!
An Ambitious Classic (Larry Jennings): The A, 2, 3, 4, and 5 of Clubs perform an ambitious routine moving from top to bottom, from bottom to top, they turn over and at the end the 5C becomes the 5H! It will become one of your favorite routines!

Wild, Wild Best (Aldo Colombini): Eight red cards and two black cards. All the cards become black. Then four are back to red and the other four changes into Aces!

Total Magic (Peter Duffie): Peter at his best! Ten cards from Ace to Ten. The cards have different numbers on their back. With this you will perform one of the most baffling routines ever!

Twister (Sam Schwartz): Presentation by Karl Fulves. You show any four of a kind and a spectator FREELY selects a suit. This card is the only one with a different colored back!

Dazzler Strickes Back (Paul Gordon): Great for trade shows too. Four cards (say Queens) find three selected cards and at the end their backs change color (any message can appear on the cards!)

Love Times Two (Nick Trost): Trost on Hamman's "Twins." An amusing 'love story' between twins with a logical 'sweet' finale!

Red Oil, Blue Water (Peter Kane): An oil and water routine with a difference. The red cards have red backs and the black cards have blue cards. Yet, the cards mix and un-mix in a three-phase killer routine!

Spectator Cheats (Reinhard Muller): The four Aces are mixed with other cards by a spectator; some cards face up, some face down. At the end the Aces are seen to be the only reversed cards in the packet!

also You can look my other last: Magic tricks, illusion-post

General
Complete name : Aldo Colombini - A Few Good Cards.avi
Format : AVI
Format/Info : Audio Video Interleave
Format profile : OpenDML
File size : 2.22 GiB
Duration : 1h 58mn
Overall bit rate : 2 682 Kbps
Movie name : A_FEW_GOOD_CARDS
Writing application : Digiarty_AVCore UNKNOWN-4.5.2


Video
ID : 0
Format : MPEG-4 Visual
Format profile : Advanced Simple@L5
Format settings, BVOP : 2
Format settings, QPel : No
Format settings, GMC : No warppoints
Format settings, Matrix : Default (H.263)
Codec ID : XVID
Codec ID/Hint : XviD
Duration : 1h 58mn
Bit rate : 2 484 Kbps
Width : 720 pixels
Height : 540 pixels
Display aspect ratio : 4:3
Frame rate : 29.970 fps
Color space : YUV
Chroma subsampling : 4:2:0
Bit depth : 8 bits
Scan type : Progressive
Compression mode : Lossy
Bits/(Pixel*Frame) : 0.213
Stream size : 2.05 GiB (93%)
Writing library : XviD 63

Audio
ID : 1
Format : MPEG Audio
Format version : Version 1
Format profile : Layer 3
Codec ID : 55
Codec ID/Hint : MP3
Duration : 1h 58mn
Bit rate mode : Constant
Bit rate : 192 Kbps
Channel(s) : 2 channels
Sampling rate : 44.1 KHz
Compression mode : Lossy
Delay relative to video : 33ms
Stream size : 162 MiB (7%)
Alignment : Split accross interleaves
Interleave, duration : 500 ms (14.98 video frames)
Interleave, preload duratio : 500 ms
Writing library : LAME3.99.5
Screenshots

Aldo Colombini - A Few Good Cards

Aldo Colombini - A Few Good Cards

Aldo Colombini - A Few Good Cards

Aldo Colombini - A Few Good Cards

Exclusive eLearning Videos ParRus-blogadd to bookmarks

Aldo Colombini - A Few Good Cards