Subcategories

CreativeLive - Final Cut Pro X Bootcamp by Abba Shapiro (2017)

Posted By: ParRus
CreativeLive - Final Cut Pro X Bootcamp by Abba Shapiro (2017)

CreativeLive - Final Cut Pro X Bootcamp by Abba Shapiro (2017)
WEBRip | MOV | English | 1280 x 720 | AVC ~1256 kbps | 29.504 fps
AAC | 125 Kbps | 48.0 KHz | 2 channels | 10:04:45 | 6.49 GB
Genre: Video Tutorial

Learn To Edit And Begin Creating Video Don’t get confused or overwhelmed by the world of video - start piecing together your story with ease. Join Abba Shapiro as he walks through how to work effectively in Final Cut Pro X. In this series, you'll walk through the interface of this easy to navigate program and quickly learn the ins and outs of this software.
Abba will cover essential topics such as building a rough cut, working with audio and incorporating motion and titles in your videos. He will show basic color correction techniques as well as how to incorporate filters and transitions to enhance the look of your final video.

Ten Day Lesson Plan:

Exploring the Interface
Editing Techniques
Setting up a Project from Scratch
Working with Audio
Incorporating Photos and Graphics
Applying Filters and Transitions
Creating Titles
Color Correction and Speed Changes
Multi-Camera Editing
Exporting and Sharing your Project


By the end of this class, you will feel proficient in creating video with this program and be excited to continue to expand your skills. You’ll be able to bring your images to life by creating stories to share with your family, friends and clients. If you’ve been thinking about expanding your business to include video, this class will help you get the technical confusion out of the way so you can focus on being creative.

Price: $199
More info: Salepage


General
Complete name : fcp-x-4.mov
Format : MPEG-4
Format profile : QuickTime
Codec ID : qt
File size : 587 MiB
Duration : 59mn 7s
Overall bit rate mode : Variable
Overall bit rate : 1 389 Kbps
Encoded date : UTC 2017-03-23 21:33:42
Tagged date : UTC 2017-03-23 21:37:32
Writing library : Apple QuickTime

Video
ID : 1
Format : AVC
Format/Info : Advanced Video Codec
Format profile : Main@L3.1
Format settings, CABAC : Yes
Format settings, ReFrames : 3 frames
Codec ID : avc1
Codec ID/Info : Advanced Video Coding
Duration : 59mn 7s
Source duration : 59mn 8s
Bit rate : 1 256 Kbps
Width : 1 280 pixels
Height : 720 pixels
Display aspect ratio : 16:9
Frame rate mode : Variable
Frame rate : 29.504 fps
Original frame rate : 30.000 fps
Minimum frame rate : 5.725 fps
Maximum frame rate : 1 000.000 fps
Standard : NTSC
Color space : YUV
Chroma subsampling : 4:2:0
Bit depth : 8 bits
Scan type : Progressive
Bits/(Pixel*Frame) : 0.046
Stream size : 531 MiB (90%)
Source stream size : 531 MiB (90%)
Title : Core Media Video
Encoded date : UTC 2017-03-23 21:33:42
Tagged date : UTC 2017-03-23 21:37:32
Color range : Limited
Color primaries : BT.709
Transfer characteristics : BT.709
Matrix coefficients : BT.709

Audio
ID : 2
Format : AAC
Format/Info : Advanced Audio Codec
Format profile : LC
Codec ID : 40
Duration : 59mn 7s
Source duration : 59mn 7s
Bit rate mode : Variable
Bit rate : 125 Kbps
Channel(s) : 2 channels
Channel positions : Front: L R
Sampling rate : 48.0 KHz
Compression mode : Lossy
Stream size : 53.0 MiB (9%)
Source stream size : 53.0 MiB (9%)
Title : Core Media Audio
Encoded date : UTC 2017-03-23 21:33:42
Tagged date : UTC 2017-03-23 21:37:32

Screenshots

CreativeLive - Final Cut Pro X Bootcamp by Abba Shapiro (2017)

CreativeLive - Final Cut Pro X Bootcamp by Abba Shapiro (2017)

CreativeLive - Final Cut Pro X Bootcamp by Abba Shapiro (2017)

CreativeLive - Final Cut Pro X Bootcamp by Abba Shapiro (2017)

CreativeLive - Final Cut Pro X Bootcamp by Abba Shapiro (2017)

Exclusive eLearning Videos ParRus-blogadd to bookmarks

Feel free to contact me PM
when links are dead or want any repost

CreativeLive - Final Cut Pro X Bootcamp by Abba Shapiro (2017)