Subcategories

FX Educator: Forex Trading Strategies with Ed Ponsi - Disc Two [repost]

Posted By: ParRus
FX Educator: Forex Trading Strategies with Ed Ponsi - Disc Two [repost]

FX Educator: Forex Trading Strategies - Disc Two
DVD5 | English | VIDEO_TS | 720 x 480 | MPEG2 ~3383 kbps | 29.970 fps
AC-3 | 192 Kbps | 48.0 KHz | 1 channel | 02:39:39 | 3.38 GB
Genre: eLearning Video / Investing, Trading, Stocks

Ed Ponsi's FX Educator DVD - a complete comprehensive trading course with nearly 5 hours of professional instruction, 10 detailed technical trading strategies and over 100 color charts and graphs! Former Chief Trading Instructor for Forex Capital Markets (FXCM), Ed Ponsi is the President of FXEducator LLC and is an experienced professional trader and money manager. He's advised hedge funds, institutional traders, and individuals of all levels of skill and experience.
A sought-after public speaker, consultant, commentator and writer, Ed has appeared in numerous seminars, trading magazines, and live broadcasts, and is a frequent contributor to trading websites.

Complete, comprehensive trading course!
Nearly 5 hours of professional instruction!
Ten detailed technical trading strategies!
Contains over 100 color charts and graphs!
Complete coverage of fundamental analysis!
Professional risk management techniques!


DVD Contents:

Part 4 - Technical Strategies: Techniques for Successful Forex Trading!

Multiple Time Frames
FXEd Fibonacci Method
FXEd Trend Method
Volatility Breakout
The Elevator
The Detective
Pivot Point Technique
Breakouts
Triangles
The "Carry" Trade


Part 5 - Risk Management: The Key to Success in Forex Trading!
Part 6 - Putting it All Together: Putting Knowledge Into Action!
Part 7 - Stop Placement: Protect Your Trade and Your Accoun

and You can watch my other last: Business-posts

General
Complete name : VTS_02_2.VOB
Format : MPEG-PS
File size : 1 024 MiB
Duration : 39mn 15s
Overall bit rate mode : Variable
Overall bit rate : 3 647 Kbps

Video
ID : 224 (0xE0)
Format : MPEG Video
Format version : Version 2
Format profile : Main@Main
Format settings, BVOP : Yes
Format settings, Matrix : Custom
Format settings, GOP : M=3, N=15
Duration : 39mn 14s
Bit rate mode : Variable
Bit rate : 3 383 Kbps
Maximum bit rate : 7 500 Kbps
Width : 720 pixels
Height : 480 pixels
Display aspect ratio : 4:3
Frame rate : 29.970 fps
Standard : NTSC
Color space : YUV
Chroma subsampling : 4:2:0
Bit depth : 8 bits
Scan type : Interlaced
Scan order : Bottom Field First
Compression mode : Lossy
Bits/(Pixel*Frame) : 0.327
Time code of first frame : 00:52:47:15
Time code source : Group of pictures header
Stream size : 950 MiB (93%)
Color primaries : BT.601 NTSC
Transfer characteristics : BT.601
Matrix coefficients : BT.601

Audio
ID : 189 (0xBD)-128 (0x80)
Format : AC-3
Format/Info : Audio Coding 3
Mode extension : CM (complete main)
Format settings, Endianness : Big
Muxing mode : DVD-Video
Duration : 39mn 15s
Bit rate mode : Constant
Bit rate : 192 Kbps
Channel(s) : 1 channel
Channel positions : Front: C
Sampling rate : 48.0 KHz
Bit depth : 16 bits
Compression mode : Lossy
Delay relative to video : -588ms
Stream size : 53.9 MiB (5%)

Menu

Screenshots

FX Educator: Forex Trading Strategies with Ed Ponsi - Disc Two [repost]

FX Educator: Forex Trading Strategies with Ed Ponsi - Disc Two [repost]

FX Educator: Forex Trading Strategies with Ed Ponsi - Disc Two [repost]

FX Educator: Forex Trading Strategies with Ed Ponsi - Disc Two [repost]

FX Educator: Forex Trading Strategies with Ed Ponsi - Disc Two [repost]

FX Educator: Forex Trading Strategies with Ed Ponsi - Disc Two [repost]

FX Educator: Forex Trading Strategies with Ed Ponsi - Disc Two [repost]

Exclusive eLearning Videos ParRus-blogadd to bookmarks

FX Educator: Forex Trading Strategies with Ed Ponsi - Disc Two [repost]