Subcategories

Udemy - Fundamentals of Photo Editing in Darktable (2020)

Posted By: ParRus
Udemy - Fundamentals of Photo Editing in Darktable (2020)

Udemy - Fundamentals of Photo Editing in Darktable (2020)
WEBRip | English | MP4 | 1280 x 720 | AVC ~1594 kbps | 24 fps
AAC | 128 Kbps | 48.0 KHz | 2 channels | ~3 hours | 1.79 GB
Genre: eLearning Video / Photography, Image Editing

A Guide to Image Editing in Darktable's Free RAW Processing Software for Beginners
What you'll learn

Photo Editing with Darktable
RAW Image Editing
RAW Processing
Darktable Layout
Darktable Modules
Setting Up Your Camera for RAW Photography
Uploading RAW Photos to Your Computer
Making Popular Image Adjustments
Color Correcting RAW Images
Sharpening RAW Images
Saving/Exporting RAW Images
Adding Styles and Tags to Your Photos

Requirements

Have a computer
Have a camera capable of taking RAW photos (i.e. DSLR camera)

Description


Want to learn how to properly edit your RAW photos using the popular and FREE RAW Processing Software Darktable? Want to know how to properly set up your camera for RAW photography? Looking to finally learn the Darktable layout, panels, and modules so you aren't "stabbing in the dark" when making image adjustments?

I'm Mike Davies, photographer, course instructor, and owner of Davies Media Design. I'm here to introduce you to one of the most powerful pieces of RAW processing software on the planet. The best part? It's totally free!

In this course, I provide:

An introduction to Darktable and RAW Photography

Instructions on how to take RAW photos with your camera

An overview of importing RAW images to your computer and opening them in Darktable

An in-depth look at the Darktable layout

A demonstration of all the Panels found in Darktable

An introduction to modules, as well as an in-depth look at my favorite modules for photo editing

Definitions for photo editing and Darktable concepts

Insight into why certain modules/image adjustments are used for RAW editing

Step-by-step instruction on how to edit/remove/add your photo's:

Exposure

Shadows and Highlights

Tone Curve

Color Balance

White Balance

Noise

Sharpening

Vignette

Exporting guidelines and recommendations

Whether you're a casual photographer familiar with RAW photography, or someone looking to learn RAW image processing for the first time, this course is perfect for you! My lectures are easy for beginners to follow, but in-depth enough for anyone to walk away knowing more about Darktable and image editing than they previously did.

As an instructor on Udemy, my courses have over 4,500 students and a 4.5 star rating. Plus, I personally answer your questions about Darktable and photo editing, and encourage feedback to improve the course.

It's time you finally mastered RAW photo editing and Darktable! Enroll today for lifetime access - including access to future content added to the course.

Who this course is for:
Digital Photographers
Beginner Photographers
Beginner Photo Retouchers
Beginner Photo Editors
Anyone Wanting to Learn Darktable or RAW Image Processing

also You can find my other helpful photographing-posts
(if old file-links don't show activity, try copy-paste them to the address bar)

General
Complete name : 11 - modules-introduction.mp4
Format : MPEG-4
Format profile : Base Media
Codec ID : isom (isom/avc1/mp42)
File size : 114 MiB
Duration : 9 min 15 s
Overall bit rate mode : Variable
Overall bit rate : 1 725 kb/s
Encoded date : UTC 2020-04-19 08:23:04
Tagged date : UTC 2020-04-19 08:23:04

Video
ID : 1
Format : AVC
Format/Info : Advanced Video Codec
Format profile : Main@L3.1
Format settings : CABAC / 4 Ref Frames
Format settings, CABAC : Yes
Format settings, RefFrames : 4 frames
Codec ID : avc1
Codec ID/Info : Advanced Video Coding
Duration : 9 min 15 s
Bit rate : 1 594 kb/s
Maximum bit rate : 5 502 kb/s
Width : 1 280 pixels
Height : 720 pixels
Display aspect ratio : 16:9
Frame rate mode : Constant
Frame rate : 24.000 FPS
Color space : YUV
Chroma subsampling : 4:2:0
Bit depth : 8 bits
Scan type : Progressive
Bits/(Pixel*Frame) : 0.072
Stream size : 106 MiB (92%)
Tagged date : UTC 2020-04-19 08:23:04

Audio
ID : 2
Format : AAC
Format/Info : Advanced Audio Codec
Format profile : LC
Codec ID : mp4a-40-2
Duration : 9 min 15 s
Bit rate mode : Variable
Bit rate : 128 kb/s
Maximum bit rate : 141 kb/s
Channel(s) : 2 channels
Channel positions : Front: L R
Sampling rate : 48.0 kHz
Frame rate : 46.875 FPS (1024 SPF)
Compression mode : Lossy
Stream size : 8.46 MiB (7%)
Language : English
Encoded date : UTC 2020-04-19 08:21:13
Tagged date : UTC 2020-04-19 08:23:04
Screenshots

Udemy - Fundamentals of Photo Editing in Darktable (2020)

Udemy - Fundamentals of Photo Editing in Darktable (2020)

Udemy - Fundamentals of Photo Editing in Darktable (2020)

Udemy - Fundamentals of Photo Editing in Darktable (2020)

✅ Exclusive eLearning Videos ParRus-blogadd to bookmarks
Feel free to contact me PM
when links are dead or want any repost

Udemy - Fundamentals of Photo Editing in Darktable (2020)