Subcategories

Future Bass Track From Start To Finish (2016)

Posted By: ParRus
Future Bass Track From Start To Finish (2016)

Future Bass Track From Start To Finish (2016)
WEBRip | English | MP4 + Project files | 1920 x 1200 | AVC ~847 kbps | 30 fps
AAC | 128 Kbps | 44.1 KHz | 2 channels | 05:41:43 | 2.05 GB
Genre: Video Tutorial / Sound Processing, Music Production, Sound Engineering

Using Ableton Live & NI Massive to produce a professional Future Bass track step by step
Content:

1. Introduction & Hello.mp4
2. Setup & Downloading The Files.mp4
3. Playing the Final Product.mp4
4. Idea Generation - Part 1 Writing Chords.mp4
5. Idea Generation - Part 2 Creating The First 8 Bar Loop in Session View.mp4
6. Switching to Arrangement View & Adding Layers.mp4
7. Adding Snares.mp4
8. Adding Vocal Chops.mp4
9. Adding Fills, Warps, Stretches.mp4
10. Sound Design, LFOs, Arpeggios.mp4
11. Adding Chilled Parts, Scales.mp4
12. Adding Plucks.mp4
13. Four To The Floor Part.mp4
14. Creating A Big Fill FX.mp4
15. Sound Design LFO E-Organ.mp4
16. Heavy Drop + Lead Sound.mp4
17. First Buildup and White Noise Edits.mp4
18. Adding an Intro.mp4
19. Creating Custom Pianos, Resampling, Reversing FX.mp4
20. Transitions 1 - Frequency Shifting.mp4
21. Transitions 2 - Fade To Grey FX.mp4
22. Transitions 3 - Adjustments.mp4
23. Mixing.mp4
24. Mastering.mp4
25. AB Mastered Version.mp4

Bonus 1 Future Bass Melody Vocal Chop Session.mp4
Bonus 2 How to use Ableton Live 9.2 Simpler vs. Simpler in Live 9.5.flv
Bonus 2 How to use Ableton Live 9.2 Simpler vs. Simpler in Live 9.5.mp4
PML Future Bass From Scratch - Course Material.zip

also You can look my other last: Sound Processing-posts

General
Complete name : 3. Playing the Final Product.mp4
Format : MPEG-4
Format profile : Base Media
Codec ID : isom
File size : 16.4 MiB
Duration : 2mn 19s
Overall bit rate : 983 Kbps
Writing application : Lavf57.37.101

Video
ID : 1
Format : AVC
Format/Info : Advanced Video Codec
Format profile : High@L5
Format settings, CABAC : Yes
Format settings, ReFrames : 4 frames
Codec ID : avc1
Codec ID/Info : Advanced Video Coding
Duration : 2mn 19s
Bit rate : 847 Kbps
Width : 1 920 pixels
Height : 1 200 pixels
Display aspect ratio : 16:10
Frame rate mode : Constant
Frame rate : 30.000 fps
Color space : YUV
Chroma subsampling : 4:2:0
Bit depth : 8 bits
Scan type : Progressive
Bits/(Pixel*Frame) : 0.012
Stream size : 14.1 MiB (86%)
Writing library : x264 core 148 r2705 3f5ed56
Encoding settings : cabac=1 / ref=4 / deblock=1:0:0 / analyse=0x3:0x113 / me=umh / subme=8 / psy=1 / psy_rd=1.00:0.00 / mixed_ref=1 / me_range=16 / chroma_me=1 / trellis=1 / 8x8dct=1 / cqm=0 / deadzone=21,11 / fast_pskip=1 / chroma_qp_offset=-2 / threads=12 / lookahead_threads=2 / sliced_threads=0 / nr=0 / decimate=1 / interlaced=0 / bluray_compat=0 / constrained_intra=0 / bframes=3 / b_pyramid=2 / b_adapt=2 / b_bias=0 / direct=3 / weightb=1 / open_gop=0 / weightp=2 / keyint=90 / keyint_min=46 / scenecut=0 / intra_refresh=0 / rc_lookahead=40 / rc=crf / mbtree=1 / crf=23.0 / qcomp=0.60 / qpmin=10 / qpmax=51 / qpstep=4 / vbv_maxrate=5625 / vbv_bufsize=5625 / crf_max=0.0 / nal_hrd=none / filler=0 / ip_ratio=1.41 / aq=1:1.00

Audio
ID : 2
Format : AAC
Format/Info : Advanced Audio Codec
Format profile : LC
Codec ID : 40
Duration : 2mn 19s
Duration_LastFrame : -21ms
Bit rate mode : Constant
Bit rate : 128 Kbps
Channel(s) : 2 channels
Channel positions : Front: L R
Sampling rate : 44.1 KHz
Compression mode : Lossy
Stream size : 2.14 MiB (13%)
Language : German

Screenshots

Future Bass Track From Start To Finish (2016)

Future Bass Track From Start To Finish (2016)

Future Bass Track From Start To Finish (2016)

Future Bass Track From Start To Finish (2016)

Exclusive eLearning Videos ParRus-blogadd to bookmarks

Future Bass Track From Start To Finish (2016)