Subcategories

FX At One Glance – High Probability Price Action Video Course

Posted By: ParRus
FX At One Glance – High Probability Price Action Video Course

FX At One Glance – High Probability Price Action Video Course
WEBRip | English | MP4 + PDF Guide | 1280 x 720 | AVC ~583 Kbps | 25 fps
AAC | 127 Kbps | 44.1 KHz | 2 channels | 06:48:32 | 1.73 GB
Genre: eLearning Video / Forex, Trading, Stock

The High Probability Price Action video course is designed to help you to understand the language of the market. What good is it if the market is telling you one thing but you do another? Well believe it or not but many of us do exactly that.
The market will be saying bearish but we will go long and then wonder why we lost our trade. Learning a new language takes time and you must learn to listen before you can speak. Every language sounds strange the first time you hear it, but the more you expose yourself to it the more familiar it becomes, and the easier it is to speak it properly. This is also true with the market language and I am going to teach you how to listen and read the markets to help you to better understand where, when and why you should or should not be entering a trade.

Curriculum

HIGH PROBABILITY PRICE ACTION – CANDLESTICK ANALYSIS
HIGH PROBABILITY PRICE ACTION – MARKET STRUCTURE
HIGH PROBABILITY PRICE ACTION – SUPPORT & RESISTANCE
HIGH PROBABILITY PRICE ACTION – SUPPLY & DEMAND

You can find my other useful: Trading-posts

General
Complete name : 3.HIGH PROBABILITY PRICE ACTION – SUPPORT & RESISTANCE.mp4
Format : MPEG-4
Format profile : Base Media
Codec ID : isom (isom/iso2/avc1/mp41)
File size : 360 MiB
Duration : 1 h 10 min
Overall bit rate mode : Variable
Overall bit rate : 714 kb/s
Encoded date : UTC 2018-12-20 14:45:58
Tagged date : UTC 2018-12-20 14:45:58
Writing application : Lavf51.12.1

Video
ID : 1
Format : AVC
Format/Info : Advanced Video Codec
Format profile : High@L3.1
Format settings : CABAC / 1 Ref Frames
Format settings, CABAC : Yes
Format settings, RefFrames : 1 frame
Format settings, GOP : M=1, N=12
Codec ID : avc1
Codec ID/Info : Advanced Video Coding
Duration : 1 h 10 min
Bit rate mode : Variable
Bit rate : 583 kb/s
Width : 1 280 pixels
Height : 720 pixels
Display aspect ratio : 16:9
Frame rate mode : Constant
Frame rate : 25.000 FPS
Color space : RGB
Chroma subsampling : 4:2:0
Bit depth : 8 bits
Scan type : Progressive
Bits/(Pixel*Frame) : 0.025
Stream size : 293 MiB (82%)
Encoded date : UTC 2018-12-20 14:45:58
Tagged date : UTC 2018-12-20 14:45:58
Color range : Limited
Matrix coefficients : Identity

Audio
ID : 2
Format : AAC
Format/Info : Advanced Audio Codec
Format profile : LC
Codec ID : mp4a-40-2
Duration : 1 h 10 min
Bit rate mode : Variable
Bit rate : 127 kb/s
Channel(s) : 2 channels
Channel positions : Front: L R
Sampling rate : 44.1 kHz
Frame rate : 43.066 FPS (1024 SPF)
Compression mode : Lossy
Stream size : 63.9 MiB (18%)
Encoded date : UTC 2018-12-20 14:45:58
Tagged date : UTC 2018-12-20 14:45:58

Screenshots

FX At One Glance – High Probability Price Action Video Course

FX At One Glance – High Probability Price Action Video Course

FX At One Glance – High Probability Price Action Video Course

FX At One Glance – High Probability Price Action Video Course

FX At One Glance – High Probability Price Action Video Course

✅ Exclusive eLearning Videos ParRus-blogadd to bookmarks

Feel free to contact me PM
when links are dead or want any repost

FX At One Glance – High Probability Price Action Video Course