Subcategories

Getting Started with VMware vRealize Operations Manager (2019)

Posted By: ParRus
Getting Started with VMware vRealize Operations Manager (2019)

Getting Started with VMware vRealize Operations Manager (2019)
WEBRip | English | MP4 + Project files | 1280 x 720 | AVC ~302 Kbps | 30 fps
AAC | 93.8 Kbps | 44.1 KHz | 2 channels | 2h 58mn | 382 MB
Genre: Video Tutorial

Watch this course to learn how to supercharge your vSphere infrastructure and the applications that run on it! By the end of this course you'll know how vRealize Operations Manager works, how to install, configure, administer, and extend vROps!
Content:

Course Overview 1m 32s
Course Overview 1m 32s
Getting Started 12m 17s
Introduction to vRealize Operations 4m 24s
What You’ll Learn in This Course 1m 23s
Prerequisites 2m 13s
About the vSphere Environment 1m 20s
About Your Scenario 1m 25s
About Your Instructor 1m 30s
Understanding vRealize Operations Manager18m 58s
Overview 50s
What Makes up the vRealize Suite? 2m 37s
What Is vRealize Operations Manager? 1m 55s
Benefits of vRealize Operations Manager 1m 44s
vRealize Operations Manager Editions 2m 52s
Licensing vRealize Operations 5m 5s
vRealize Operations Architecture 2m 8s
Summary 1m 44s
Installing vRealize Operations Manager15m 23s
Overview 54s
Installation Requirements 3m 10s
vRealize Operations Sizing Tool 3m 9s
Deploying vRealize Operations 3m 34s
Performing Initial Configuration 2m 1s
Connecting vROps to vCenter 1m 23s
Summary 1m 8s
Navigating vRealize Operations Manager 20m 27s
Overview 28s
Using Dashboards and Widgets 8m 17s
Viewing the Environment 2m 57s
Using Inventory Trees 3m 2s
Using Views 4m 20s
Summary 1m 21s
Configuring vRealize Operations Manager 50m 50s
Overview 1m 40s
Alerts 12m 49s
Actions 6m 50s
Policies 7m 14s
Super-metrics 3m 37s
Downloading Super-metrics 2m 21s
Predictive DRS 2m 34s
Workload Optimization 4m 19s
Custom Dashboards 5m 2s
Downloading Dashboards 2m 33s
Summary 1m 46s
Monitoring and Troubleshooting with vRealize Operations Manager18m 1s
Overview 45s
Monitoring vSphere 2m 44s
Resolving Trouble 5m 7s
Capacity Planning 2m 43s
Reclaiming Waste 1m 44s
Ensuring Compliance 1m 7s
Summary 3m 49s
Extending vRealize Operations Manager10m 44s
Overview 52s
Installing the vSAN Management Pack 1m 5s
Configuring the vSAN Management Pack 3m 10s
Exploring the Management Pack Repository 1m 44s
Monitoring Applications 3m 2s
Summary 49s
Administering vRealize Operations Manager26m 14s
Overview 1m 1s
Managing Users and Roles 6m 33s
Monitoring Performance of the vROps vApp 3m 25s
Adding Nodes for HA or Data Collection 6m 4s
Backing up and Recovering vROps 1m 32s
Upgrading vROps 3m 33s
Configuring Email Alerts 3m 1s
Summary 1m 2s
Conclusion3m 40s
What you Learned 1m 54s
Recommended Resources 1m 45s

also You can find my other useful: programming-posts

General
Complete name : 06.Downloading Super-metrics.mp4
Format : MPEG-4
Format profile : Base Media / Version 2
Codec ID : mp42 (isom/iso2/avc1/mp41/mp42)
File size : 6.77 MiB
Duration : 2 min 21 s
Overall bit rate mode : Variable
Overall bit rate : 400 kb/s
Writing application : Lavf57.25.100

Video
ID : 1
Format : AVC
Format/Info : Advanced Video Codec
Format profile : Main@L4
Format settings : CABAC / 8 Ref Frames
Format settings, CABAC : Yes
Format settings, RefFrames : 8 frames
Format settings, GOP : M=4, N=90
Codec ID : avc1
Codec ID/Info : Advanced Video Coding
Duration : 2 min 21 s
Bit rate : 302 kb/s
Width : 1 280 pixels
Height : 720 pixels
Display aspect ratio : 16:9
Frame rate mode : Constant
Frame rate : 30.000 FPS
Color space : YUV
Chroma subsampling : 4:2:0
Bit depth : 8 bits
Scan type : Progressive
Bits/(Pixel*Frame) : 0.011
Stream size : 5.10 MiB (75%)
Writing library : x264 core 148 r236 a01e339
Encoding settings : cabac=1 / ref=8 / deblock=1:0:0 / analyse=0x1:0x111 / me=umh / subme=6 / psy=1 / psy_rd=0.00:0.00 / mixed_ref=1 / me_range=16 / chroma_me=1 / trellis=0 / 8x8dct=0 / cqm=0 / deadzone=21,11 / fast_pskip=1 / chroma_qp_offset=0 / threads=22 / lookahead_threads=3 / sliced_threads=0 / nr=0 / decimate=1 / interlaced=0 / bluray_compat=0 / constrained_intra=0 / bframes=3 / b_pyramid=2 / b_adapt=1 / b_bias=0 / direct=1 / weightb=1 / open_gop=0 / weightp=0 / keyint=90 / keyint_min=46 / scenecut=0 / intra_refresh=0 / rc_lookahead=40 / rc=crf / mbtree=1 / crf=20.0 / qcomp=0.60 / qpmin=10 / qpmax=51 / qpstep=4 / ip_ratio=1.41 / aq=1:1.00
Language : English
Tagged date : UTC 2019-05-28 15:06:21

Audio
ID : 2
Format : AAC
Format/Info : Advanced Audio Codec
Format profile : LC
Codec ID : mp4a-40-2
Duration : 2 min 21 s
Source duration : 2 min 21 s
Source_Duration_LastFrame : -7 ms
Bit rate mode : Variable
Bit rate : 93.8 kb/s
Maximum bit rate : 96.0 kb/s
Channel(s) : 2 channels
Channel positions : Front: L R
Sampling rate : 44.1 kHz
Frame rate : 43.066 FPS (1024 SPF)
Compression mode : Lossy
Stream size : 1.59 MiB (23%)
Source stream size : 1.59 MiB (23%)
Language : English
Default : Yes
Alternate group : 1
Tagged date : UTC 2019-05-28 15:06:21

Screenshots

Getting Started with VMware vRealize Operations Manager (2019)

Getting Started with VMware vRealize Operations Manager (2019)

Getting Started with VMware vRealize Operations Manager (2019)

Getting Started with VMware vRealize Operations Manager (2019)

Getting Started with VMware vRealize Operations Manager (2019)

✅ Exclusive eLearning Videos ParRus-blogadd to bookmarks

Feel free to contact me PM
when links are dead or want any repost

Getting Started with VMware vRealize Operations Manager (2019)