Subcategories
Tags
Language
Tags

Woody Mann - The Guitar Of Blind Blake

Posted By: ParRus
Woody Mann - The Guitar Of Blind Blake

Woody Mann - The Guitar Of Blind Blake
DVDRip | English | AVI + PDF Guide | 624 x 464 | XviD ~1051 kbps | 29.970 fps
MP3 128 Kbps 48.0 KHz | 2 channels | 01:34:00 | 799 MB
Genre: eLearning Video / Guitar lesson, Singing, Voice

Blind Blake was the premier ragtime blues guitarist of the 1920s. He extended the alternating bass style, that was popular at the turn of the century, to encompass the dance trends and more complex blues ideas that were emerging from the jazz bands of New Orleans and Chicago.
His playing featured unique right hand thumb rolls that evoked the feel of the Charleston dance-step. Rev. Gary Davis greatly admired Blake’s playing and used to remark that Blake had a “sportin’ right-hand”. Blind Blake influenced generations of country blues guitarists and was never equaled.
In this unique dvd lesson, Woody Mann explores the ideas, techniques and styles of this legendary guitarist. A 48 page tab/music booklet is included as well as BONUS audio tracks of all the original Blind Blake recordings of the
tunes taught.

Includes:

Diddie Wa Diddie
Chump Man Blues
Police Dog Blues
That Will Never Happen No More
Black Dog Blues
Blind Arthur’s Breakdown

also You can find my other helpful Guitar-posts
(if old file-links don't show activity, try copy-paste them to the address bar)

General
Complete name : The Guitar of Blind Blake.avi
Format : AVI
Format/Info : Audio Video Interleave
File size : 798 MiB
Duration : 1 h 33 min
Overall bit rate : 1 190 kb/s
Writing application : transcode-1.1.7

Video
ID : 0
Format : MPEG-4 Visual
Format profile : Advanced Simple@L5
Format settings : BVOP1
Format settings, BVOP : 1
Format settings, QPel : No
Format settings, GMC : No warppoints
Format settings, Matrix : Default (H.263)
Codec ID : XVID
Codec ID/Hint : XviD
Duration : 1 h 33 min
Bit rate : 1 051 kb/s
Width : 624 pixels
Height : 464 pixels
Display aspect ratio : 4:3
Frame rate : 29.970 (30000/1001) FPS
Color space : YUV
Chroma subsampling : 4:2:0
Bit depth : 8 bits
Scan type : Progressive
Compression mode : Lossy
Bits/(Pixel*Frame) : 0.121
Stream size : 704 MiB (88%)
Writing library : XviD 64

Audio
ID : 1
Format : MPEG Audio
Format version : Version 1
Format profile : Layer 3
Format settings : Joint stereo / MS Stereo
Codec ID : 55
Codec ID/Hint : MP3
Duration : 1 h 33 min
Bit rate mode : Constant
Bit rate : 128 kb/s
Channel(s) : 2 channels
Sampling rate : 48.0 kHz
Compression mode : Lossy
Stream size : 85.8 MiB (11%)
Alignment : Split accross interleaves
Interleave, duration : 33 ms (1.00 video frame)
Writing library : LAM
Screenshots

Woody Mann - The Guitar Of Blind Blake

Woody Mann - The Guitar Of Blind Blake

Woody Mann - The Guitar Of Blind Blake

Woody Mann - The Guitar Of Blind Blake

✅ Exclusive eLearning Videos ParRus-blogadd to bookmarks

Feel free to contact me PM
when links are dead or want any repost

Woody Mann - The Guitar Of Blind Blake