Tags
Language
Tags
December 2022
Su Mo Tu We Th Fr Sa
27 28 29 30 1 2 3
4 5 6 7 8 9 10
11 12 13 14 15 16 17
18 19 20 21 22 23 24
25 26 27 28 29 30 31

Machine Learning A-Z™: Hands-On Python & R In Data Science (2017)

Posted By: ParRus
Machine Learning A-Z™: Hands-On Python & R In Data Science (2017)

Machine Learning A-Z™: Hands-On Python & R In Data Science (2017)
WEBRip | English | MP4 + Project files | 1920 x 1080 | AVC ~229 kbps | 30 fps
AAC | 192 Kbps | 48.0 KHz | 2 channels | ~40.5 hours | 6.22 GB
Genre: eLearning Video / Development, Programming

Learn to create Machine Learning Algorithms in Python and R from two Data Science experts. Code templates included.
What Will I Learn?

Master Machine Learning on Python & R
Have a great intuition of many Machine Learning models
Make accurate predictions
Make powerful analysis
Make robust Machine Learning models
Create strong added value to your business
Use Machine Learning for personal purpose
Handle specific topics like Reinforcement Learning, NLP and Deep Learning
Handle advanced techniques like Dimensionality Reduction
Know which Machine Learning model to choose for each type of problem
Build an army of powerful Machine Learning models and know how to combine them to solve any problem

Requirements
Just some high school mathematics level

Interested in the field of Machine Learning? Then this course is for you!

This course has been designed by two professional Data Scientists so that we can share our knowledge and help you learn complex theory, algorithms and coding libraries in a simple way.

We will walk you step-by-step into the World of Machine Learning. With every tutorial you will develop new skills and improve your understanding of this challenging yet lucrative sub-field of Data Science.

This course is fun and exciting, but at the same time we dive deep into Machine Learning. It is structured the following way:
Part 1 - Data Preprocessing
Part 2 - Regression: Simple Linear Regression, Multiple Linear Regression, Polynomial Regression, SVR, Decision Tree Regression, Random Forest Regression
Part 3 - Classification: Logistic Regression, K-NN, SVM, Kernel SVM, Naive Bayes, Decision Tree Classification, Random Forest Classification
Part 4 - Clustering: K-Means, Hierarchical Clustering
Part 5 - Association Rule Learning: Apriori, Eclat
Part 6 - Reinforcement Learning: Upper Confidence Bound, Thompson Sampling
Part 7 - Natural Language Processing: Bag-of-words model and algorithms for NLP
Part 8 - Deep Learning: Artificial Neural Networks, Convolutional Neural Networks
Part 9 - Dimensionality Reduction: PCA, LDA, Kernel PCA
Part 10 - Model Selection & Boosting: k-fold Cross Validation, Parameter Tuning, Grid Search, XGBoost
Moreover, the course is packed with practical exercises which are based on live examples. So not only will you learn the theory, but you will also get some hands-on practice building your own models.

And as a bonus, this course includes both Python and R code templates which you can download and use on your own projects.

Who is the target audience?
Anyone interested in Machine Learning
Students who have at least high school knowledge in math and who want to start learning Machine Learning
Any intermediate level people who know the basics of machine learning, including the classical algorithms like linear regression or logistic regression, but who want to learn more about it and explore all the different fields of Machine Learning.
Any people who are not that comfortable with coding but who are interested in Machine Learning and want to apply it easily on datasets.
Any students in college who want to start a career in Data Science.
Any data analysts who want to level up in Machine Learning.
Any people who are not satisfied with their job and who want to become a Data Scientist.
Any people who want to create added value to their business by using powerful Machine Learning tools

also You can find my other last: Programming-posts

General
Complete name : 056 SVR in Python.mp4
Format : MPEG-4
Format profile : Base Media / Version 2
Codec ID : mp42 (isom/iso2/avc1/mp41/mp42)
File size : 60.2 MiB
Duration : 19 min 57 s
Overall bit rate mode : Variable
Overall bit rate : 422 kb/s
Encoded date : UTC 2016-10-28 19:12:02
Tagged date : UTC 2016-10-28 19:12:02
Writing application : Lavf53.32.100

Video
ID : 1
Format : AVC
Format/Info : Advanced Video Codec
Format profile : High@L3
Format settings, CABAC : Yes
Format settings, ReFrames : 4 frames
Codec ID : avc1
Codec ID/Info : Advanced Video Coding
Duration : 19 min 57 s
Bit rate : 229 kb/s
Width : 1 920 pixels
Height : 1 080 pixels
Display aspect ratio : 16:9
Frame rate mode : Constant
Frame rate : 30.000 FPS
Color space : YUV
Chroma subsampling : 4:2:0
Bit depth : 8 bits
Scan type : Progressive
Bits/(Pixel*Frame) : 0.004
Stream size : 32.7 MiB (54%)
Writing library : x264 core 136
Encoding settings : cabac=1 / ref=4 / deblock=1:0:0 / analyse=0x3:0x113 / me=umh / subme=7 / psy=0 / mixed_ref=1 / me_range=16 / chroma_me=1 / trellis=1 / 8x8dct=1 / cqm=0 / deadzone=21,11 / fast_pskip=0 / chroma_qp_offset=0 / threads=48 / lookahead_threads=8 / sliced_threads=0 / nr=0 / decimate=1 / interlaced=0 / bluray_compat=0 / constrained_intra=0 / bframes=16 / b_pyramid=2 / b_adapt=1 / b_bias=0 / direct=1 / weightb=1 / open_gop=0 / weightp=2 / keyint=300 / keyint_min=25 / scenecut=40 / intra_refresh=0 / rc=crf / mbtree=0 / crf=23.0 / qcomp=0.60 / qpmin=10 / qpmax=51 / qpstep=4 / ip_ratio=1.40 / pb_ratio=1.30 / aq=1:1.00
Encoded date : UTC 2016-10-28 19:12:02
Tagged date : UTC 2016-10-28 19:51:09

Audio
ID : 2
Format : AAC
Format/Info : Advanced Audio Codec
Format profile : LC
Codec ID : 40
Duration : 19 min 57 s
Bit rate mode : Variable
Bit rate : 192 kb/s
Channel(s) : 2 channels
Channel positions : Front: L R
Sampling rate : 48.0 kHz
Frame rate : 46.875 FPS (1024 spf)
Compression mode : Lossy
Stream size : 27.0 MiB (45%)
Default : Yes
Alternate group : 1
Encoded date : UTC 2016-10-28 19:12:02
Tagged date : UTC 2016-10-28 19:51:09
Screenshots

Machine Learning A-Z™: Hands-On Python & R In Data Science (2017)

Machine Learning A-Z™: Hands-On Python & R In Data Science (2017)

Machine Learning A-Z™: Hands-On Python & R In Data Science (2017)

Machine Learning A-Z™: Hands-On Python & R In Data Science (2017)

Machine Learning A-Z™: Hands-On Python & R In Data Science (2017)

Exclusive eLearning Videos ParRus-blogadd to bookmarks

Feel free to contact me PM
when links are dead or want any repost

Machine Learning A-Z™: Hands-On Python & R In Data Science (2017)