Subcategories

guitarjamz: Guitar Lessons How to Play Acoustic & Electric Guitar

Posted By: ParRus
guitarjamz: Guitar Lessons How to Play Acoustic & Electric Guitar

guitarjamz: Guitar Lessons How to Play Acoustic & Electric Guitar
WEBRip | English | MP4 + PDF tabs | 640 x 480 | AVC ~750 kbps | 29.970 fps
AAC 110 Kbps 44.1 KHz | 2 channels | ~65 hours | 17.01 GB
Genre: eLearning Video / Guitar lesson

Excellent compilation of lessons Acoustic & Electric Guitar, lessons are available on thematic folders as they were presented on the website.
Content:
Music Theory
Intermediate Lessons
Guitar Licks
Easy Songs
Blues Scales
Blues Lessons
Country
Blues Lead
Blues Chords
Beginner Lessons
Beginner Guitar Chords
Advanced Lessons

also You can find my other great: Guitar Lessons-posts

General
Complete name :Beginner Rock Guitar Lesson 9.mp4
Format : MPEG-4
Format profile : Base Media
Codec ID : isom (isom/avc1)
File size : 89.0 MiB
Duration : 14mn 25s
Overall bit rate mode : Variable
Overall bit rate : 863 Kbps
Encoded date : UTC 2009-09-25 05:05:19
Tagged date : UTC 2009-09-26 05:05:22

Video
ID : 1
Format : AVC
Format/Info : Advanced Video Codec
Format profile : High@L3.1
Format settings, CABAC : Yes
Format settings, ReFrames : 4 frames
Codec ID : avc1
Codec ID/Info : Advanced Video Coding
Duration : 14mn 25s
Bit rate : 750 Kbps
Maximum bit rate : 1 398 Kbps
Width : 640 pixels
Height : 480 pixels
Display aspect ratio : 4:3
Frame rate mode : Constant
Frame rate : 29.970 (30000/1001) fps
Original frame rate : 29.970 (29970/1000) fps
Color space : YUV
Chroma subsampling : 4:2:0
Bit depth : 8 bits
Scan type : Progressive
Bits/(Pixel*Frame) : 0.081
Stream size : 77.4 MiB (87%)
Writing library : x264 core 72 r1217 5e9ae4c
Encoding settings : cabac=1 / ref=4 / deblock=1:0:0 / analyse=0x3:0x113 / me=hex / subme=7 / psy=1 / psy_rd=1.0:0.0 / mixed_ref=1 / me_range=16 / chroma_me=1 / trellis=1 / 8x8dct=1 / cqm=0 / deadzone=21,11 / chroma_qp_offset=-2 / threads=8 / nr=0 / decimate=1 / mbaff=0 / bframes=4 / b_pyramid=0 / b_adapt=1 / b_bias=0 / direct=3 / wpredb=1 / keyint=90 / keyint_min=30 / scenecut=40 / rc_lookahead=40 / rc=2pass / mbtree=1 / bitrate=750 / ratetol=1.0 / qcomp=0.60 / qpmin=10 / qpmax=51 / qpstep=4 / cplxblur=20.0 / qblur=0.5 / vbv_maxrate=1125 / vbv_bufsize=3750 / ip_ratio=1.40 / aq=1:1.00
Encoded date : UTC 2009-09-25 05:05:19
Tagged date : UTC 2009-09-25 05:05:21

Audio
ID : 2
Format : AAC
Format/Info : Advanced Audio Codec
Format profile : LC
Codec ID : 40
Duration : 14mn 25s
Bit rate mode : Variable
Bit rate : 110 Kbps
Maximum bit rate : 143 Kbps
Channel(s) : 2 channels
Channel positions : Front: L R
Sampling rate : 44.1 KHz
Frame rate : 43.066 fps (1024 spf)
Compression mode : Lossy
Stream size : 11.3 MiB (13%)
Encoded date : UTC 2009-09-25 05:05:21
Tagged date : UTC 2009-09-25 05:05:21
Screenshots

guitarjamz: Guitar Lessons How to Play Acoustic & Electric Guitar

guitarjamz: Guitar Lessons How to Play Acoustic & Electric Guitar

guitarjamz: Guitar Lessons How to Play Acoustic & Electric Guitar

guitarjamz: Guitar Lessons How to Play Acoustic & Electric Guitar

guitarjamz: Guitar Lessons How to Play Acoustic & Electric Guitar

Exclusive eLearning Videos ParRus-blogadd to bookmarks

guitarjamz: Guitar Lessons How to Play Acoustic & Electric Guitar