Subcategories

Nathan Chan - Instagram Domination 3.0 (2016)

Posted By: ParRus
Nathan Chan - Instagram Domination 3.0 (2016)

Nathan Chan - Instagram Domination 3.0
WEBRip | English | MP4 + PDF Guides | 1280 x 720 | AVC ~467 kbps | 23.976 fps
AAC | 128 Kbps | 44.1 KHz | 2 channels | 11:42:00 | 2.93 GB
Genre: eLearning Video / Business

The Proven Method for Generating a Predictable Flow of Highly Engaged, Motivated Followers and Customers for Your Business! Instagram Domination gives you the power to start using Instagram today to attract followers who are genuinely excited about your business. and who will enthusiastically tell their social networks about you!
In this training, you're going to learn everything you need to know to automate your campaigns. and to use them to bring in customers 24 hours a day, 7 days a week. without massive ad expenses or "babysitting" your social media accounts!

Here's Just a Sample of What You'll Learn When You Dive Into Instagram Domination Today!
There's just too much in this revolutionary course to tell you everything you're getting when you take advantage of Instagram Domination. but I wanted to give you just a taste of what you're about to discover when you dive into the course materials just minutes from now.


You'll learn how to set up your Instagram account the right way, so that you can position your business for massive success and avoid costly mistakes that can sabotage your efforts!
You'll learn how subtle elements in your Instagram profile can have a dramatic impact on your success. and how to optimize your profile to skyrocket engagement!
You'll learn why linking to your website homepage is a bad move. and exactly what you should link to instead!
You'll discover the easy way to track link clicks. so that you know exactly how well your Instagram campaigns are performing!
You'll find out how often you should post - and what types of content to post - for optimal results!
You'll learn exactly which times of the day to post for maximum engagement!
You'll develop a "stealth strategy" for interacting with your Instagram community and responding to comments!
You'll find out why hashtags are critical to your success. and how to choose hashtags for maximum exposure with minimal effort!
You'll learn how to use all the Instagram Tools, so you can create super professional and HOT looking images to make your content go VIRAL, and make attracting enthusiastic customers even faster and easier!
You'll get little-known geo-targeting strategies for building your follower list almost effortlessly!
You'll learn multiple Shoutout strategies for dramatically increasing visibility and engagement!
You'll find out which tracking and analytics tools give you the most relevant information about your Instagram campaigns with the least amount of effort!
You'll get proven strategies for outsourcing almost every aspect of your Instagram campaigns, so that you can spend more time running your business and taking care of your customers!
And much, MUCH more!

also You can watch my other last: Business-posts

General
Complete name : Social Blade.mp4
Format : MPEG-4
Format profile : Base Media
Codec ID : isom
File size : 17.7 MiB
Duration : 4mn 12s
Overall bit rate : 588 Kbps
Season : 0
Movie name : Social Blade
Part : 0

Video
ID : 1
Format : AVC
Format/Info : Advanced Video Codec
Format profile : High@L3.1
Format settings, CABAC : Yes
Format settings, ReFrames : 4 frames
Codec ID : avc1
Codec ID/Info : Advanced Video Coding
Duration : 4mn 12s
Bit rate : 467 Kbps
Width : 1 280 pixels
Height : 720 pixels
Display aspect ratio : 16:9
Frame rate mode : Constant
Frame rate : 23.976 fps
Color space : YUV
Chroma subsampling : 4:2:0
Bit depth : 8 bits
Scan type : Progressive
Bits/(Pixel*Frame) : 0.021
Stream size : 13.6 MiB (77%)
Writing library : x264 core 129
Encoding settings : cabac=1 / ref=3 / deblock=1:0:0 / analyse=0x3:0x113 / me=hex / subme=7 / psy=1 / psy_rd=1.00:0.00 / mixed_ref=1 / me_range=16 / chroma_me=1 / trellis=1 / 8x8dct=1 / cqm=0 / deadzone=21,11 / fast_pskip=1 / chroma_qp_offset=-2 / threads=9 / lookahead_threads=1 / sliced_threads=0 / nr=0 / decimate=1 / interlaced=0 / bluray_compat=0 / constrained_intra=0 / bframes=3 / b_pyramid=2 / b_adapt=1 / b_bias=0 / direct=1 / weightb=1 / open_gop=0 / weightp=2 / keyint=250 / keyint_min=23 / scenecut=40 / intra_refresh=0 / rc_lookahead=40 / rc=abr / mbtree=1 / bitrate=467 / ratetol=1.0 / qcomp=0.60 / qpmin=0 / qpmax=69 / qpstep=4 / ip_ratio=1.40 / aq=1:1.00

Audio
ID : 2
Format : AAC
Format/Info : Advanced Audio Codec
Format profile : LC
Codec ID : 40
Duration : 4mn 12s
Duration_LastFrame : 26ms
Bit rate mode : Constant
Bit rate : 128 Kbps
Channel(s) : 2 channels
Channel positions : Front: L R
Sampling rate : 44.1 KHz
Compression mode : Lossy
Stream size : 3.85 MiB (22%)

Menu
ID : 3
Codec ID : text
Duration : 4mn 12s
Encoded date : UTC 2016-12-15 13:30:15
Tagged date : UTC 2016-12-15 13:30:15
00:00:00.000 : Chapter 1

Screenshots

Nathan Chan - Instagram Domination 3.0 (2016)

Nathan Chan - Instagram Domination 3.0 (2016)

Nathan Chan - Instagram Domination 3.0 (2016)

Nathan Chan - Instagram Domination 3.0 (2016)

Nathan Chan - Instagram Domination 3.0 (2016)

Nathan Chan - Instagram Domination 3.0 (2016)

Exclusive eLearning Videos ParRus-blogadd to bookmarks

Nathan Chan - Instagram Domination 3.0 (2016)