Subcategories

Jackson Blues Guitar taught by John Miller [repost]

Posted By: ParRus
Jackson Blues Guitar taught by John Miller [repost]

Jackson Blues Guitar taught by John Miller
DVD5 | English | VIDEO_TS + PDF Guides | 720 x 480 | MPEG2 ~4500 kbps | 29.970 fps
AC-3 192 Kbps 48.0 KHz | 2 channels | 01:37:00 | 3.67 GB
Genre: eLearning Video / Guitar lesson

John Miller presents this guitar tutorial based on the music of Jackson, Mississippi from 1910 to 1940. The Jackson blues scene was stylistically rich, spanning the gap from the sophisticated pop blues of Bo Carter to the low-down blues of Rube Lacy.
About the Actor

At the age of 12, John Miller was inspired to play the guitar after seeing Mississippi John Hurt perform at the Philadelphia Folk Festival. he bought his first guitar at the age of 16 and launched into an intensive period of study of Country Blues guitar, learning the music of John Hurt, Mance Lipscomb, Bo Carter, Blind Blake, and other greats. By the time he was twenty-seven, John had released five solo albums to international critical acclaim. Those albums ranged from Country blues and Old Time country music to the songs of George Gershwin. For the next 15 years, John focused on teaching, founding two music camps, composing, and building a vocabulary in Jazz and Latin music. In the last seven years, John has released CDs with a Jazz trio, Catwalk, duos with mandolinist John Reischman, violinist Ruthie Dornfeld, singer Becky Kilgore, and French cabaret music with the ensemble Rouge. Says Miller of his musical travels, I ve played many many different styles of music in recent years, but I ve come to realize that everything I ve done has been informed by my early involvement with Country Blues and the lessons I learned from that music: the primacy of rhythm and the need to communicate with clarity and strength of purpose. I strive for those qualities in the music I play, and I hope that what I do honors the memory of my heroes, like John Hurt, who have passed on.

also You can look my other last: Guitar Lessons-posts

General
Complete name : VTS_02_2.VOB
Format : MPEG-PS
File size : 1 024 MiB
Duration : 29mn 50s
Overall bit rate : 4 796 Kbps

Video
ID : 224 (0xE0)
Format : MPEG Video
Format version : Version 2
Format profile : Main@Main
Format settings, BVOP : Yes
Format settings, Matrix : Custom
Format settings, GOP : M=3, N=15
Duration : 29mn 50s
Bit rate : 4 500 Kbps
Width : 720 pixels
Height : 480 pixels
Display aspect ratio : 4:3
Frame rate : 29.970 fps
Standard : NTSC
Color space : YUV
Chroma subsampling : 4:2:0
Bit depth : 8 bits
Scan type : Interlaced
Scan order : Top Field First
Compression mode : Lossy
Bits/(Pixel*Frame) : 0.434
Time code of first frame : 01:30:08:09
Time code source : Group of pictures header
Stream size : 962 MiB (94%)

Audio
ID : 189 (0xBD)-128 (0x80)
Format : AC-3
Format/Info : Audio Coding 3
Mode extension : CM (complete main)
Format settings, Endianness : Big
Muxing mode : DVD-Video
Duration : 29mn 50s
Bit rate mode : Constant
Bit rate : 192 Kbps
Channel(s) : 2 channels
Channel positions : Front: L R
Sampling rate : 48.0 KHz
Bit depth : 16 bits
Compression mode : Lossy
Delay relative to video : -235ms
Stream size : 41.0 MiB (4%)

Menu
Screenshots

Jackson Blues Guitar taught by John Miller [repost]

Jackson Blues Guitar taught by John Miller [repost]

Jackson Blues Guitar taught by John Miller [repost]

Jackson Blues Guitar taught by John Miller [repost]

Exclusive eLearning Videos ParRus-blogadd to bookmarks

Jackson Blues Guitar taught by John Miller [repost]