Subcategories

Udemy - JavaScript - The Complete Guide 2020 (Beginner + Advanced) (2019)

Posted By: ParRus
Udemy - JavaScript - The Complete Guide 2020 (Beginner + Advanced) (2019)

Udemy - JavaScript - The Complete Guide 2020 (Beginner + Advanced) (2019)
WEBRip | English | MP4 + Project Files | 1280 x 720 | AVC ~703 Kbps | 30 fps
AAC | 128 Kbps | 48.0 KHz | 2 channels | ~45 hours | 17.25 GB
Genre: Video Tutorial / Programming

Modern JavaScript from the beginning - all the way the way up to JS expert level! THE must-have JavaScript resource.
What you'll learn
JavaScript from scratch - beginner to advanced
All core features and concepts you need to know in modern JavaScript development
Everything you need to become a JavaScript expert and apply for JavaScript jobs
Project-driven learning with plenty of examples
All about variables, functions, objects and arrays
Object-oriented programming
Deep dives into prototypes, JavaScript engines & how it works behind the scenes
Manipulating web pages (= the DOM) with JavaScript
Event handling, asynchronous coding and Http requests
Meta-programming, performance optimization, memory leak busting
Testing, security and deployment
And so much more!

JavaScript is THE most important programming language you need to learn as a web developer - and with this course, you make sure that you will not miss a single thing you have to know as a JavaScript developer!

This is the most comprehensive and modern course you can find on JavaScript - it's based on all my JavaScript knowledge AND teaching experience. It's both a complete guide, starting with the core basics of the language, as well as an extensive reference of the JavaScript language and environment, ensuring that both newcomers as well as experienced JavaScript developers get a lot out of this course!

It's a huge course because it's packed with important knowledge and helpful content. From the core basics, over advanced concepts and JavaScript specialties, all the way up to expert topics like performance optimization and testing - this course has it all. My goal was to create your go-to resource for the JavaScript language, which you can not just use for learning it but also as a resource you can come back to and look up important topics.

The course is based on my experience as a long-term JavaScript developer as well as a teacher with more than 1,000,000 students on Udemy as well as on my YouTube channel Academind. It's packed with examples, demos, projects, assignments, quizzes and of course videos - all with the goal of giving you the best possible way of learning JavaScript.

What's in the course?

This course is obviously packed with content - I therefore strongly recommend that you check out the full course curriculum to get a clear idea of all the topics covered in the course. In general, here's what you'll find in the course:

Modern JavaScript from the start: The JavaScript syntax changed over time - in this course, you'll learn the latest syntax from the start (you'll also learn about the old one though, so that you can work in ANY JS project)

ALL the Basics: Variables, constants, functions, how scripts are loaded etc

Arrays & Objects: We'll explore these very important data structures in great detail

Control Structures: Understand how to run code conditionally and in loops

A look behind the Scenes: How JavaScript engines work behind the scenes and what that means for us

Deep dives into Core Concepts: ALL the special things about JavaScript function, different syntaxes

Working with the DOM: How to manipulate web pages dynamically via JavaScript (including deep dives and different use-cases)

Events in JavaScript: Learn how to listen to a broad variety of events (e.g. drag & drop) and execute appropriate code

Classes & Object-oriented Programming: Learn how to work with classes, prototypes, the "this" keyword, constructor functions and much more

Asynchronous and Synchronous Programming: We'll explore callbacks, promises, async/ await and other important tools and language features to execute code correctly

Http Requests: Learn how to send Http requests via JavaScript

Tooling, Optimizations & Browser Support: Code splitting, producing small code and ensuring that scripts work in all browsers - this matters and hence is covered in great detail

Libraries & Frameworks: Learn about libraries like Axios or frameworks like React.js - why they matter and how to use them

Node.js: Whilst focusing on the browser-side for the majority of the course (because the syntax is the same), we'll also have a dedicated section on Node.js to learn all about that JS host environment

Security & Performance Optimizations: Of course security matters, so does performance - no surprise that both is covered in the course!

Automated Testing: Testing manually is hard work and can be unreliable - in this course you'll also get an introduction into automated testing

What are the course prerequisites?

NO JavaScript knowledge is required - you'll learn it from scratch!

You also need NO programming experience other than basic web development knowledge (e.g. how the web works)

Basic HTML and CSS knowledge is recommended but not a must-have

Who this course is for:
Beginner web development students who have no or only little JavaScript experience
Also developers who know the basics about JavaScript and want to deepen their knowledge
Advanced JavaScript developers who want to learn more about the nitty-gritty details and dive into advanced concepts
Everyone interested in learning JavaScript and all about how it works

also You can find my other useful: programming-posts

General
Complete name : 6. Selecting Elements in the DOM.mp4
Format : MPEG-4
Format profile : Base Media
Codec ID : isom (isom/iso2/avc1/mp41)
File size : 59.6 MiB
Duration : 9 min 54 s
Overall bit rate : 840 kb/s
Writing application : Lavf58.12.100

Video
ID : 1
Format : AVC
Format/Info : Advanced Video Codec
Format profile : Main@L3.1
Format settings : CABAC / 4 Ref Frames
Format settings, CABAC : Yes
Format settings, RefFrames : 4 frames
Codec ID : avc1
Codec ID/Info : Advanced Video Coding
Duration : 9 min 54 s
Bit rate : 703 kb/s
Nominal bit rate : 3 000 kb/s
Width : 1 280 pixels
Height : 720 pixels
Display aspect ratio : 16:9
Frame rate mode : Constant
Frame rate : 30.000 FPS
Color space : YUV
Chroma subsampling : 4:2:0
Bit depth : 8 bits
Scan type : Progressive
Bits/(Pixel*Frame) : 0.025
Stream size : 49.9 MiB (84%)
Writing library : x264 core 148
Encoding settings : cabac=1 / ref=3 / deblock=1:-1:-1 / analyse=0x1:0x111 / me=umh / subme=6 / psy=1 / psy_rd=1.00:0.15 / mixed_ref=1 / me_range=16 / chroma_me=1 / trellis=1 / 8x8dct=0 / cqm=0 / deadzone=21,11 / fast_pskip=1 / chroma_qp_offset=-3 / threads=22 / lookahead_threads=3 / sliced_threads=0 / nr=0 / decimate=1 / interlaced=0 / bluray_compat=0 / constrained_intra=0 / bframes=3 / b_pyramid=2 / b_adapt=1 / b_bias=0 / direct=1 / weightb=1 / open_gop=0 / weightp=2 / keyint=60 / keyint_min=6 / scenecut=0 / intra_refresh=0 / rc_lookahead=60 / rc=cbr / mbtree=1 / bitrate=3000 / ratetol=1.0 / qcomp=0.60 / qpmin=0 / qpmax=69 / qpstep=4 / vbv_maxrate=3000 / vbv_bufsize=6000 / nal_hrd=none / filler=0 / ip_ratio=1.40 / aq=1:1.00

Audio
ID : 2
Format : AAC
Format/Info : Advanced Audio Codec
Format profile : LC
Codec ID : mp4a-40-2
Duration : 9 min 54 s
Bit rate mode : Constant
Bit rate : 128 kb/s
Channel(s) : 2 channels
Channel positions : Front: L R
Sampling rate : 48.0 kHz
Frame rate : 46.875 FPS (1024 SPF)
Compression mode : Lossy
Stream size : 9.07 MiB (15%)
Default : Yes
Alternate group : 1

Screenshots

Udemy - JavaScript - The Complete Guide 2020 (Beginner + Advanced) (2019)

Udemy - JavaScript - The Complete Guide 2020 (Beginner + Advanced) (2019)

Udemy - JavaScript - The Complete Guide 2020 (Beginner + Advanced) (2019)

Udemy - JavaScript - The Complete Guide 2020 (Beginner + Advanced) (2019)

Udemy - JavaScript - The Complete Guide 2020 (Beginner + Advanced) (2019)

✅ Exclusive eLearning Videos ParRus-blogadd to bookmarks

Feel free to contact me PM
when links are dead or want any repost

Udemy - JavaScript - The Complete Guide 2020 (Beginner + Advanced) (2019)