Tags
Language
Tags
January 2023
Su Mo Tu We Th Fr Sa
1 2 3 4 5 6 7
8 9 10 11 12 13 14
15 16 17 18 19 20 21
22 23 24 25 26 27 28
29 30 31 1 2 3 4

Khan Academy - Finance Lessons [repost]

Posted By: ParRus
Khan Academy - Finance Lessons [repost]

Khan Academy - Finance Lessons
178xFlash Video | English | MP4 | 1280 x 720 | AVC ~1383 kbps | 23.976 fps
AAC | 126 Kbps | 44.1 KHz | 2 channels | 33:36:40 | 2.6 GB
Genre: Video Tutorial / Business, Economics and Finances

Our library of videos covers K-12 math, science topics such as biology, chemistry, and physics, and even reaches into the humanities with playlists on finance and history. Each video is a digestible chunk, approximately 10 minutes long, and especially purposed for viewing on the computer.
The Khan Academy is a not-for-profit educational organization, created in 2006 by Bangladeshi American educator Salman Khan, a graduate of MIT. With the stated mission of "providing a high quality education to anyone, anywhere", the website supplies a free online collection of more than 2,600 micro lectures via video tutorials stored on YouTube teaching mathematics, history, finance, physics, chemistry, biology, astronomy, economics and computer science.

Lessons:
Finance - 01 - Core Finance
Finance - 02 - Banking and Money
Finance - 03 - Valuation and Investing
Finance - 04 - Venture Capital and Capital Markets
Finance - 05 - Credit Crisis
Finance - 06 - Paulson Bailout
Finance - 07 - Geithner Plan
Finance - 08 - Current Economics
Finance - 09 - Currency

also You can watch my other last: Business-posts

General
Complete name : 070 Introduction to Mortgage Loans.mp4
Format : MPEG-4
Format profile : Base Media / Version 2
Codec ID : mp42
File size : 199 MiB
Duration : 18mn 26s
Overall bit rate mode : Variable
Overall bit rate : 1 511 Kbps
Encoded date : UTC 2010-03-30 22:20:41
Tagged date : UTC 2010-03-30 22:20:41


Video
ID : 2
Format : AVC
Format/Info : Advanced Video Codec
Format profile : High@L3.1
Format settings, CABAC : Yes
Format settings, ReFrames : 3 frames
Codec ID : avc1
Codec ID/Info : Advanced Video Coding
Duration : 18mn 26s
Bit rate : 1 383 Kbps
Maximum bit rate : 11.7 Mbps
Width : 1 280 pixels
Height : 720 pixels
Display aspect ratio : 16:9
Frame rate mode : Constant
Frame rate : 23.976 fps
Color space : YUV
Chroma subsampling : 4:2:0
Bit depth : 8 bits
Scan type : Progressive
Bits/(Pixel*Frame) : 0.063
Stream size : 182 MiB (92%)
Title : (C) 2007 Google Inc. v08.13.2007.
Encoded date : UTC 2010-03-30 22:20:42
Tagged date : UTC 2010-03-30 22:20:52

Audio
ID : 1
Format : AAC
Format/Info : Advanced Audio Codec
Format profile : LC
Codec ID : 40
Duration : 18mn 26s
Bit rate mode : Variable
Bit rate : 126 Kbps
Maximum bit rate : 255 Kbps
Channel(s) : 2 channels
Channel positions : Front: L R
Sampling rate : 44.1 KHz
Compression mode : Lossy
Stream size : 16.6 MiB (8%)
Title : (C) 2007 Google Inc. v08.13.2007.
Encoded date : UTC 2010-03-30 22:20:41
Tagged date : UTC 2010-03-30 22:20:52

Screenshots

Khan Academy - Finance Lessons [repost]

Khan Academy - Finance Lessons [repost]

Khan Academy - Finance Lessons [repost]

Khan Academy - Finance Lessons [repost]

Khan Academy - Finance Lessons [repost]

Exclusive eLearning Videos ParRus-blogadd to bookmarks

Khan Academy - Finance Lessons [repost]