Subcategories

Learn to Trade for Profit: Going Short During Market Crashes (2017)

Posted By: ParRus
Learn to Trade for Profit: Going Short During Market Crashes (2017)

Learn to Trade for Profit: Going Short During Market Crashes
WEBRip | English | MP4 | 1152 x 720 | AVC ~209 kbps | 30 fps
AAC | 59 Kbps | 44.1 KHz | 2 channels | 01:26:50 | 301 MB
Genre: eLearning Video / Business, Trading, Investing

Learn to protect yourself and profit from downtrends & stock market crashes with inverse ETFs & short selling strategies
Do you want to learn when to take profits?
How to trade successfully before and during financial crisis?
And how to increase your profits when majority of people are losing money?
PROFIT FROM STOCK MARKET CRASHES: THE SHORT SELLING STRATEGY is a course designed to teach you the right time to sell and take profits before market reverses, using technical analysis, Japanese candlesticks, volatility indices and other essential indicators.

The stock market is designed to be moving up.

However, every three to six months price reverses direction and moves down. Profits that took months to build, can be wiped out in matter of days.

This bearish scenario happens regularly: it happened in the past and it will happen again. When it does, are you ready for it?

Whether you are trading stocks, forex, commodities, options, ETFs… this course will give you the tools you need to take profits before price reverses, as well as learn how to make money during market crashes!

We look at different trading charts and specific stocks to understand how to identify market tops, and the beginning of bearish price movements using the visual illustrations of candlestick charts and other technical indicators.

This course offers an overview on the importance of analyzing volatility for time market reversals and market downtrends.

You will learn to use three important indicators to analyze market conditions and understand when is the time to stay in the trade, and when it is the time to get of the trade.

You will be giving specific instruction how to calculate profit target with accuracy, and how to set up protective stop losses for preserving your capital.

New lectures will be added to the course regularly - at no extra cost to you! This is a course that will continue to grow.

Take this course now and learn from our 5+ years of experience. Avoid the most common pitfalls that catch 90% of traders!

Too often beginner traders enter the market without the necessary knowledge and practice needed. As a result they take excessive, expensive and unnecessary risks hoping for higher returns. This course will teach you a very effective way to trade in the market successfully and with confidence.

This course is for all levels: beginners, intermediate and advanced traders! All you need is an open mind and a passion to be successful!

Enroll in this course now and start trading the market successfully!

Over 20,000 students have already joined Sharper Trades courses. Join a large community of successful traders.

All our Sharper Trades courses come with:

30 day money-back-in-full guarantee
Unlimited lifetime access at no extra costs
All future additional lectures, bonuses, etc in this course are always free
Our Sharper Trades team is always available to answer any question you might have regarding this course. Answers are given in less than 24 hours!
Your trading success is our goal!

Includes:

Introduction
How Bearish Markets Work
Market Analysis
Timing the Downtrend with Market Indices and Volatility
Use of VIX and Other Indicators to Time Downtrend
Taking Profits: Know When to Sell Before Price Reverses Direction
Bearish Strategy: Short Selling
Inverse ETFs: The Safe Way to Trade Bearish Markets
BONUS 1 - Candlestick Analysis
BONUS 2 - Support and Resistance
BONUS 3 - Bearish Consolidation and Breakout Patterns
Studying, Reading and Analyzing your Trading Chart
Conclusions

and You can watch my other last: Business-posts

General
Complete name : 13_-_Historical_Volatility_and_Implied_Volatility.mp4
Format : MPEG-4
Format profile : Base Media
Codec ID : isom
File size : 5.92 MiB
Duration : 3mn 3s
Overall bit rate mode : Variable
Overall bit rate : 270 Kbps
Encoded date : UTC 2016-01-25 05:19:57
Tagged date : UTC 2016-01-25 05:19:57

Video
ID : 1
Format : AVC
Format/Info : Advanced Video Codec
Format profile : Baseline@L3.1
Format settings, CABAC : No
Format settings, ReFrames : 3 frames
Format settings, GOP : M=1, N=50
Codec ID : avc1
Codec ID/Info : Advanced Video Coding
Duration : 3mn 3s
Bit rate : 209 Kbps
Maximum bit rate : 1 367 Kbps
Width : 1 152 pixels
Height : 720 pixels
Display aspect ratio : 16:10
Frame rate mode : Constant
Frame rate : 30.000 fps
Color space : YUV
Chroma subsampling : 4:2:0
Bit depth : 8 bits
Scan type : Progressive
Bits/(Pixel*Frame) : 0.008
Stream size : 4.57 MiB (77%)
Writing library : Zencoder Video Encoding System
Encoded date : UTC 2016-01-25 05:19:48
Tagged date : UTC 2016-01-25 05:19:57

Audio
ID : 2
Format : AAC
Format/Info : Advanced Audio Codec
Format profile : LC
Codec ID : 40
Duration : 3mn 3s
Bit rate mode : Variable
Bit rate : 59.0 Kbps
Maximum bit rate : 64.6 Kbps
Channel(s) : 2 channels
Channel positions : Front: L R
Sampling rate : 44.1 KHz
Compression mode : Lossy
Stream size : 1.29 MiB (22%)
Encoded date : UTC 2016-01-25 05:19:48
Tagged date : UTC 2016-01-25 05:19:57

Screenshots

Learn to Trade for Profit: Going Short During Market Crashes (2017)

Learn to Trade for Profit: Going Short During Market Crashes (2017)

Learn to Trade for Profit: Going Short During Market Crashes (2017)

Learn to Trade for Profit: Going Short During Market Crashes (2017)

Exclusive eLearning Videos ParRus-blogadd to bookmarks

Learn to Trade for Profit: Going Short During Market Crashes (2017)