Subcategories

SkillShare - Learn Video Editing with Premiere Pro CC for beginners

Posted By: ParRus
SkillShare - Learn Video Editing with Premiere Pro CC for beginners

SkillShare - Learn Video Editing with Premiere Pro CC for beginners
WEBRip | MP4 + Project files | English | 1280 x 720 | AVC ~1371 kbps | 25 fps
AAC | 128 Kbps | 44.1 KHz | 2 channels | 03:53:40 | 2.73 GB
Genre: Video Tutorial

Make better video and join the world of professional video editing in this step by step Premiere Pro course.
DO YOU WANT TO MAKE BETTER VIDEOS?

Make things that others can't. Let your videos shine with custom effects and animations that make it look professional.
Don't limit your creativity! Learn all the buttons, understand the interface and known how things work in Premiere Pro.
Learn as you go. This course teaches you a good fundament. The idea behind it is that you can learn advanced things by yourself as you edit videos in Premiere Pro.
My name is Jordy Vandeput and I'm a professional video editor.

I've been teaching Premiere Pro classes since 2006 in various online and local schools
I've edited commercials and promotional films for BMW, Belgacom, Isola and more
I've had an intensive 2 year online instructor training at Envato
I've had over 3 million views across Youtube and Vimeo where I host various tutorials
From years of experience in teaching Premiere Pro classes, I have developed a method that teaches the fundamentals very fast. Many books and other classes sometimes show things that are not important and forget to explain stuff that IS IMPORTANT.This is a waste of your time, while you could have learned other things.

WHAT WILL I LEARN?

We start by organising and importing our footage. You have won half the battle by doing this right.
Next we dive instantly into the editing. You will learn a professional workflow here.
As we're editing you will learn more and more tools from the user interface. Each button will be explained and used for practice.
Then comes the fun part where we'll create effects, titles and custom animations.
Finally we'll finish our video with color corrections and audio mixing to export the video with the best quality settings in a small file format.

General
Complete name : 12.Design a title or text.MP4
Format : MPEG-4
Format profile : Base Media
Codec ID : isom
File size : 166 MiB
Duration : 15mn 24s
Overall bit rate mode : Variable
Overall bit rate : 1 503 Kbps
Encoded date : UTC 2016-02-20 15:05:18
Tagged date : UTC 2016-02-20 15:05:18

Video
ID : 1
Format : AVC
Format/Info : Advanced Video Codec
Format profile : Main@L3.1
Format settings, CABAC : Yes
Format settings, ReFrames : 4 frames
Codec ID : avc1
Codec ID/Info : Advanced Video Coding
Duration : 15mn 24s
Bit rate : 1 371 Kbps
Maximum bit rate : 11.9 Mbps
Width : 1 280 pixels
Height : 720 pixels
Display aspect ratio : 16:9
Frame rate mode : Constant
Frame rate : 25.000 fps
Color space : YUV
Chroma subsampling : 4:2:0
Bit depth : 8 bits
Scan type : Progressive
Bits/(Pixel*Frame) : 0.060
Stream size : 151 MiB (91%)
Writing library : Zencoder Video Encoding System
Encoded date : UTC 2016-02-20 15:03:57
Tagged date : UTC 2016-02-20 15:05:18
Color range : Limited
Color primaries : BT.709
Transfer characteristics : BT.709
Matrix coefficients : BT.709

Audio
ID : 2
Format : AAC
Format/Info : Advanced Audio Codec
Format profile : LC
Codec ID : 40
Duration : 15mn 24s
Bit rate mode : Variable
Bit rate : 128 Kbps
Maximum bit rate : 155 Kbps
Channel(s) : 2 channels
Channel positions : Front: L R
Sampling rate : 44.1 KHz
Compression mode : Lossy
Stream size : 14.1 MiB (9%)
Encoded date : UTC 2016-02-20 15:02:38
Tagged date : UTC 2016-02-20 15:05:18

Screenshots

SkillShare - Learn Video Editing with Premiere Pro CC for beginners

SkillShare - Learn Video Editing with Premiere Pro CC for beginners

SkillShare - Learn Video Editing with Premiere Pro CC for beginners

SkillShare - Learn Video Editing with Premiere Pro CC for beginners

SkillShare - Learn Video Editing with Premiere Pro CC for beginners

Exclusive eLearning Videos ParRus-blogadd to bookmarks

Feel free to contact me PM
when links are dead or want any repost

SkillShare - Learn Video Editing with Premiere Pro CC for beginners