Subcategories

Kelby Training - Live Wedding Shoot, Start to Finish [repost]

Posted By: ParRus
Kelby Training - Live Wedding Shoot, Start to Finish [repost]

Kelby Training - Live Wedding Shoot, Start to Finish
DVDRip | FLV | English | 852 x 478 | VP6 ~820 kbps | 29.970 fps
MP3 | 128 Kbps | 44.1 KHz | 2 channels | 01:23:51 | 589.6 MB
Genre: Video Tutorial / Photographing

Wedding Photographer David Ziser invited the Kelby Training cameras to follow for an entire wedding shoot. His day begins with some shots of the bride getting ready, then outside for group shots, then on to the ceremony and reception. David lets viewers see his equipment choices, shot selections, lighting techniques, camera positioning, and finally, he talks about the process of choosing which images to work with in post-processing.
Content:

01 Introduction and Equipment 6:37
02 Getting Started at the Bride's House 9:56
03 Scenic Overlook 5:06
04 Outside the Church Before the Ceremony 11:12
05 Inside the Church 8:25
06 The Reception 14:52
07 Reviewing the Key Points 27:43

also You can look my other last: Photography-posts

General
Complete name : 03 Scenic Overlook.flv
Format : Flash Video
File size : 36.6 MiB
Duration : 5mn 5s
Overall bit rate : 1 004 Kbps
Encoded date : Thu May 27 18:36:00 2010

Video
Format : VP6
Codec ID : 4
Duration : 5mn 5s
Bit rate : 820 Kbps
Width : 852 pixels
Height : 478 pixels
Display aspect ratio : 16:9
Frame rate mode : Constant
Frame rate : 29.970 fps
Bit depth : 8 bits
Bits/(Pixel*Frame) : 0.067
Stream size : 29.9 MiB (82%)

Audio
Format : MPEG Audio
Format version : Version 1
Format profile : Layer 3
Mode : Joint stereo
Codec ID : 2
Codec ID/Hint : MP3
Duration : 5mn 5s
Bit rate mode : Constant
Bit rate : 128 Kbps
Channel(s) : 2 channels
Sampling rate : 44.1 KHz
Compression mode : Lossy
Stream size : 4.67 MiB (13%)

Screenshots

Kelby Training - Live Wedding Shoot, Start to Finish [repost]

Kelby Training - Live Wedding Shoot, Start to Finish [repost]

Kelby Training - Live Wedding Shoot, Start to Finish [repost]

Kelby Training - Live Wedding Shoot, Start to Finish [repost]

Kelby Training - Live Wedding Shoot, Start to Finish [repost]

Exclusive eLearning Videos ParRus-blogadd to bookmarks

Kelby Training - Live Wedding Shoot, Start to Finish [repost]