Tags
Language
Tags

Udemy - Local Lead Generation 101: Create Monthly Passive Income B2B (2020)

Posted By: ParRus
Udemy - Local Lead Generation 101: Create Monthly Passive Income B2B (2020)

Udemy - Local Lead Generation 101: Create Monthly Passive Income B2B (2020)
WEBRip | English | MP4 | 1280 x 720 | AVC ~2330 kbps | 30 fps
AAC | 128 Kbps | 48.0 KHz | 2 channels | Subs: English (.srt) | ~2 hours | 1.34 GB
Genre: eLearning Video / Business, Lead Generation

Learn the Art of Rank & Rent Digital Assets
What you'll learn

Lead Generation - you will learn how to build digital assets that bring in interested clients.
Local Lead Generation - become an asset and help local business owners boost their clientele and traffic.
B2B Sales - Learn the skillset of landing business to business clients.
Cold Calling - You will learn tips on how to get past gate keepers and sell yourself to local business owners.
Cold Emailing - You will learn how to write email copy that demands attention and a reply from your ideal client.

Requirements
You must take notes and pay attention, no specific tech skills required.
Basic computer skills are preferred.

Description
You need 8 businesses to pay you $1000/month in order to generate a 6-Figure income yearly.

Local SEO + Service businesses = Recurring Income

Not tech savvy? No problem.

Ever heard of Rank and Rent? Or Local Lead Gen?

In this course, we break down the whole local lead generation model.

Its a simple concept:

Rank regular websites on Google

Rent out the calls they get to businesses in the same city.

Repeat

You would be surprised how easy it is to begin generating phone call leads for any type of business under the sun.

The secret here is local, not national. Way easier to rank a plumbing website for the keyword "plumber dallas tx" than "plumber"

Think about it…

Who this course is for:
Those wanting to create passive side income via B2B sales.
Entrepreneurs looking to build a scalable online business.
Local Business owners who want to generate more leads.

also You can find my other helpful Business-posts
(if old file-links don't show activity, try copy-paste them to the address bar)

General
Complete name : 016 On Page SEO Part 2.mp4
Format : MPEG-4
Format profile : Base Media
Codec ID : isom (isom/iso2/avc1/mp41)
File size : 59.8 MiB
Duration : 3 min 23 s
Overall bit rate : 2 466 kb/s
Writing application : Lavf58.12.100

Video
ID : 1
Format : AVC
Format/Info : Advanced Video Codec
Format profile : Main@L3.1
Format settings : CABAC / 4 Ref Frames
Format settings, CABAC : Yes
Format settings, RefFrames : 4 frames
Codec ID : avc1
Codec ID/Info : Advanced Video Coding
Duration : 3 min 23 s
Bit rate : 2 330 kb/s
Nominal bit rate : 3 000 kb/s
Width : 1 280 pixels
Height : 720 pixels
Display aspect ratio : 16:9
Frame rate mode : Constant
Frame rate : 30.000 FPS
Color space : YUV
Chroma subsampling : 4:2:0
Bit depth : 8 bits
Scan type : Progressive
Bits/(Pixel*Frame) : 0.084
Stream size : 56.5 MiB (94%)
Writing library : x264 core 148
Encoding settings : cabac=1 / ref=3 / deblock=1:-1:-1 / analyse=0x1:0x111 / me=umh / subme=6 / psy=1 / psy_rd=1.00:0.15 / mixed_ref=1 / me_range=16 / chroma_me=1 / trellis=1 / 8x8dct=0 / cqm=0 / deadzone=21,11 / fast_pskip=1 / chroma_qp_offset=-3 / threads=22 / lookahead_threads=3 / sliced_threads=0 / nr=0 / decimate=1 / interlaced=0 / bluray_compat=0 / constrained_intra=0 / bframes=3 / b_pyramid=2 / b_adapt=1 / b_bias=0 / direct=1 / weightb=1 / open_gop=0 / weightp=2 / keyint=60 / keyint_min=6 / scenecut=0 / intra_refresh=0 / rc_lookahead=60 / rc=cbr / mbtree=1 / bitrate=3000 / ratetol=1.0 / qcomp=0.60 / qpmin=0 / qpmax=69 / qpstep=4 / vbv_maxrate=3000 / vbv_bufsize=6000 / nal_hrd=none / filler=0 / ip_ratio=1.40 / aq=1:1.00

Audio
ID : 2
Format : AAC
Format/Info : Advanced Audio Codec
Format profile : LC
Codec ID : mp4a-40-2
Duration : 3 min 23 s
Bit rate mode : Constant
Bit rate : 128 kb/s
Channel(s) : 2 channels
Channel positions : Front: L R
Sampling rate : 48.0 kHz
Frame rate : 46.875 FPS (1024 SPF)
Compression mode : Lossy
Stream size : 3.10 MiB (5%)
Default : Yes
Alternate group : 1
Screenshots

Udemy - Local Lead Generation 101: Create Monthly Passive Income B2B (2020)

Udemy - Local Lead Generation 101: Create Monthly Passive Income B2B (2020)

Udemy - Local Lead Generation 101: Create Monthly Passive Income B2B (2020)

Udemy - Local Lead Generation 101: Create Monthly Passive Income B2B (2020)

Udemy - Local Lead Generation 101: Create Monthly Passive Income B2B (2020)

✅ Exclusive eLearning Videos ParRus-blogadd to bookmarks
Feel free to contact me PM
when links are dead or want any repost

Udemy - Local Lead Generation 101: Create Monthly Passive Income B2B (2020)