Subcategories

SkillShare - Logo Design Mastery - The Full Course

Posted By: ParRus
SkillShare - Logo Design Mastery - The Full Course

SkillShare - Logo Design Mastery - The Full Course
WEBRip | English | MP4 | 1280 x 720 | AVC ~1257 Kbps | 30 fps
AAC | 127 Kbps | 44.1 KHz | 2 channels | 5h 38mn | 5.72 GB
Genre: Video Tutorial / Design

This powerful extensive class trains you in all aspects of the logo design process including logo design theory, execution, working with typography, selecting color pallets, preparing and exporting files and how to work with adobe illustrator to create stunning logos.
Not only that this class teaches you how to work with clients by following several full logo design projects from start to finish. We talk about what type of questions to ask clients before starting your logo design process.

We also apply our logos to mockups so we can create polished presentations for our portfolio or to the client for approval. We even talk about where to find possible clients by following a step by step process.

For the theory section of this course we dive into logo design categories and also review all the different logo design styles while showing Stellar examples of each.

I go over the characteristics of strong logos designs and walk you through these using real world companies. Lastly, we cannot talk about logo design theory without talking about the power of color as we review the color psychology chart.

The next section is for those who need a crash course in Adobe illustrator as we review all of the most used tools we will use throughout this class including the width, shape-builder, offset path, gradient tools and using layering masks and more.

Afterwards we walk through the entire logo design process from scratch. We will learn how to quickly get our ideas out on paper, and then turn those rough ideas into real workable designs we can present to the client. We will walk through each step of the journey as we work finding those final concepts to present. We will create a moodboard to find our perfect color matches and finish off our logo with the final touches.

Our next section dives deep into the golden ratio in logo design. We will create from scratch the golden ratio spiral and create the golden ratio circles we need to start to adapt our designs to the golden ratio. We will do several practice projects as well.

We then take this logo all the way through to the end including create all variations and sizes we will need to adapt this logo to just about anything. We will also create polished designs by learning how to use photoshop mock-ups. We will then use our downloadable file export guide to learn how and why we export the specific files to our clients.

The next section goes over portfolio building basics and several places and steps to find clients and to get client referrals so you can start building your design business.

This course is packed full of downloadable resources including a client questioner document, Logo styles and categories cheat sheet, color wheel and color psychology documents, a finding client’s resource, and file export, a golden ratio cheat sheet, a font paring guide and much more!

This class is extensive but is gentle and paced well enough for beginners to work through the course. There are both beginner and intermediate level topics discussed with some advanced topics discussed later on in the course.

This will be for anyone interested in working through a course that has a deep focus on logo design or any designer who wants to fine tune their logo design and presentation skills.

So, are you ready to up your logo design game? Let’s get started!

General
Complete name : 09 - Illustrator Tools - The Width Tool.mp4
Format : MPEG-4
Format profile : Base Media
Codec ID : isom (isom/iso2/avc1/mp41)
File size : 84.3 MiB
Duration : 8 min 27 s
Overall bit rate : 1 394 kb/s
Writing application : Lavf56.30.100

Video
ID : 1
Format : AVC
Format/Info : Advanced Video Codec
Format profile : Main@L3.1
Format settings : CABAC / 4 Ref Frames
Format settings, CABAC : Yes
Format settings, RefFrames : 4 frames
Codec ID : avc1
Codec ID/Info : Advanced Video Coding
Duration : 8 min 27 s
Bit rate : 1 257 kb/s
Width : 1 280 pixels
Height : 720 pixels
Display aspect ratio : 16:9
Frame rate mode : Constant
Frame rate : 30.000 FPS
Color space : YUV
Chroma subsampling : 4:2:0
Bit depth : 8 bits
Scan type : Progressive
Bits/(Pixel*Frame) : 0.045
Stream size : 76.1 MiB (90%)
Writing library : Zencoder Video Encoding System
Color range : Limited
Color primaries : BT.709
Transfer characteristics : BT.709
Matrix coefficients : BT.709

Audio
ID : 2
Format : AAC
Format/Info : Advanced Audio Codec
Format profile : LC
Codec ID : mp4a-40-2
Duration : 8 min 27 s
Bit rate mode : Constant
Bit rate : 127 kb/s
Channel(s) : 2 channels
Channel positions : Front: L R
Sampling rate : 44.1 kHz
Frame rate : 43.066 FPS (1024 SPF)
Compression mode : Lossy
Stream size : 7.71 MiB (9%)
Default : Yes
Alternate group : 1

Screenshots

SkillShare - Logo Design Mastery - The Full Course

SkillShare - Logo Design Mastery - The Full Course

SkillShare - Logo Design Mastery - The Full Course

SkillShare - Logo Design Mastery - The Full Course

SkillShare - Logo Design Mastery - The Full Course

✅ Exclusive eLearning Videos ParRus-blogadd to bookmarks

Feel free to contact me PM
when links are dead or want any repost

SkillShare - Logo Design Mastery - The Full Course