Subcategories

Market Masters Academy - 7 Day FX Mastery

Posted By: ParRus
Market Masters Academy - 7 Day FX Mastery

Market Masters Academy - 7 Day FX Mastery
WEBRip | English | MP4 | 1920 x 1080 | AVC ~798 Kbps | 30 fps
AAC | 137 Kbps | 48.0 KHz | 2 channels | ~18 hours | 8.66 GB
Genre: eLearning Video / Forex, Trading, Stock

This is perfect for both new and experienced traders, giving you all the tools you need to succeed no matter your background in Forex.
By the end of this course, you will have an expansive knowledge of the Forex Market and the secret philosophy behind how the world really exchanges it's money, taught by Top Forex Trader Ricky Andrade himself.
During This Training, You Will Learn:

Strategies that can be applied to ANY market (e.g. Forex, Stocks, Crypto)
The Basics of Forex
How To Enter/Exit The Market
Risk Management Strategies
An Exact Trade Goal Plan
A Precise Compound Plan
Time Zones To Make the Best Market Predictions
How To Trade With Institutional Traders
Understand How Market Makers Move the Forex Market And How NOT To Be Fooled
How to Scalp
How to Swing Trades
Have VIP Access To Ricky Andrade to Ask Any Questions At Any Time.
Exact Template/ Indicators For MT4 and How To Use Them
The OPM Strategy
And much more!

You can find my other useful: Trading-posts

General
Complete name : Day 4 Video.mp4
Format : MPEG-4
Format profile : Base Media / Version 2
Codec ID : mp42 (mp42/mp41/isom/avc1)
File size : 824 MiB
Duration : 2 h 2 min
Overall bit rate mode : Variable
Overall bit rate : 940 kb/s
Encoded date : UTC 2019-07-02 07:42:25
Tagged date : UTC 2019-07-02 07:42:25

Video
ID : 1
Format : AVC
Format/Info : Advanced Video Codec
Format profile : High@L4
Format settings : CABAC / 5 Ref Frames
Format settings, CABAC : Yes
Format settings, RefFrames : 5 frames
Codec ID : avc1
Codec ID/Info : Advanced Video Coding
Duration : 2 h 2 min
Bit rate : 798 kb/s
Width : 1 920 pixels
Height : 1 080 pixels
Display aspect ratio : 16:9
Frame rate mode : Constant
Frame rate : 30.000 FPS
Color space : YUV
Chroma subsampling : 4:2:0
Bit depth : 8 bits
Scan type : Progressive
Bits/(Pixel*Frame) : 0.013
Stream size : 700 MiB (85%)
Writing library : x264 core 157 r10 d4099dd
Encoding settings : cabac=1 / ref=5 / deblock=1:0:0 / analyse=0x3:0x113 / me=hex / subme=8 / psy=1 / psy_rd=1.00:0.00 / mixed_ref=1 / me_range=16 / chroma_me=1 / trellis=2 / 8x8dct=1 / cqm=0 / deadzone=21,11 / fast_pskip=1 / chroma_qp_offset=-2 / threads=34 / lookahead_threads=5 / sliced_threads=0 / nr=0 / decimate=1 / interlaced=0 / bluray_compat=0 / stitchable=1 / constrained_intra=0 / bframes=3 / b_pyramid=2 / b_adapt=2 / b_bias=0 / direct=3 / weightb=1 / open_gop=0 / weightp=2 / keyint=infinite / keyint_min=30 / scenecut=40 / intra_refresh=0 / rc_lookahead=50 / rc=crf / mbtree=1 / crf=20.0 / qcomp=0.60 / qpmin=5 / qpmax=69 / qpstep=4 / vbv_maxrate=5500 / vbv_bufsize=15000 / crf_max=0.0 / nal_hrd=none / filler=0 / ip_ratio=1.40 / aq=1:1.00
Encoded date : UTC 2019-07-02 07:42:25
Tagged date : UTC 2019-07-02 07:42:25
Color range : Limited
Color primaries : BT.709
Transfer characteristics : BT.709
Matrix coefficients : BT.709

Audio
ID : 2
Format : AAC
Format/Info : Advanced Audio Codec
Format profile : LC
Codec ID : mp4a-40-2
Duration : 2 h 2 min
Bit rate mode : Variable
Bit rate : 137 kb/s
Channel(s) : 2 channels
Channel positions : Front: L R
Sampling rate : 48.0 kHz
Frame rate : 46.875 FPS (1024 SPF)
Compression mode : Lossy
Stream size : 120 MiB (15%)
Encoded date : UTC 2019-07-02 07:42:25
Tagged date : UTC 2019-07-02 07:42:25

Screenshots

Market Masters Academy - 7 Day FX Mastery

Market Masters Academy - 7 Day FX Mastery

Market Masters Academy - 7 Day FX Mastery

Market Masters Academy - 7 Day FX Mastery

Market Masters Academy - 7 Day FX Mastery

✅ Exclusive eLearning Videos ParRus-blogadd to bookmarks

Feel free to contact me PM
when links are dead or want any repost

Market Masters Academy - 7 Day FX Mastery