Subcategories

Krown Trading - Master Your Options

Posted By: ParRus
Krown Trading - Master Your Options

Krown Trading - Master Your Options
WEBRip | English | MP4 | 1280 x 720 | AVC ~759 Kbps | 30 fps
AAC | 102 Kbps | 44.1 KHz | 2 channels | ~10 hours | 4.91 GB
Genre: eLearning Video / Forex, Trading, Stock

This program was designed after a decade of experience of learning the Art of Trading from several Master's on NYSE Arca and CBOE. From there I synthesized the knowledge down and applied it specifically to the world of Options and designed my own unique Trading Strategies for the purpose of producing success over the long term.
Now the first rule of learning ANYTHING and this especially applies to the Art of Options is simple - Invest in YOURSELF!

From there I synthesized the knowledge down and applied it specifically to the world of Options and designed my own unique Trading Strategies for the purpose of producing success over the long term.

Now the first rule of learning ANYTHING and this especially applies to the Art of Options is simple – Invest in YOURSELF!
Let me explain..

I am a strong believer in Human Psychology and the underlying principles of Evolutionary Psychology which has given me the upmost conviction that it is Investment of that which is valuable to us as human beings such as Time and Finances that creates value. Now while I’m sure that same person has been complaining for ages and ages has a direct connection to the world wide web or ,at the very least, a library.
BUT while there’s a plethora of knowledge available for free in your local library on how to create an online business and achieve financial freedom they never even bother to consider using it.

Well of course they don’t! They don’t have the “buy-in” factor because they don’t believe it has value simply because they did not have to work for it! No investment = no value. Simple as that!
How about another example about the opposite scenario..
Well simply again, because you Invested Time and likely Resources into that relationship you valued it emotionally.
It is by no mistake that this Program is designed to engineer that same sort of critical “Buy-in” factor that makes learning a new skill such a the Art of Options a nearly automatic process as your brain will be hyper focused and sponge like soaking up all the information included.

In it’s entirety this Program is nearly 25 hours in it’s totality, however, you will most likely re-watch the modules multiple times over the years as your understanding of the materials includes takes on a new evolved meaning. This is by design

Not only that but I wanted to reflect both the Time and Effort I put into the making of this Program visualized through the price as well as the decade of time I spent learning this information making my own trade of Time and Finances in exchange for Knowledge and Experience.

In this Program I will reveal all I know about the very strategies that I use and can verify have worked for myself in creating long-term successful trading habits.

This Program has 41 Modules included that go over these very topics as well as *special access* to the Krown Trading Proprietary Fibonocci and access to a Hidden VIP Discord.

Value: $1799
More Info: Salepage

(if old file-links don't show activity, try copy-paste them to the address bar)
You can find my other useful: Trading-posts

General
Complete name : 3. Module 3 - In Plain English.mp4
Format : MPEG-4
Format profile : Base Media
Codec ID : isom (isom/iso2/avc1/mp41)
File size : 82.0 MiB
Duration : 13 min 15 s
Overall bit rate mode : Variable
Overall bit rate : 865 kb/s
Encoded date : UTC 2019-08-11 11:50:29
Tagged date : UTC 2019-08-11 11:50:29
Writing application : Lavf51.12.1

Video
ID : 1
Format : AVC
Format/Info : Advanced Video Codec
Format profile : High@L3.1
Format settings : CABAC / 1 Ref Frames
Format settings, CABAC : Yes
Format settings, RefFrames : 1 frame
Format settings, GOP : M=1, N=12
Codec ID : avc1
Codec ID/Info : Advanced Video Coding
Duration : 13 min 15 s
Bit rate mode : Variable
Bit rate : 759 kb/s
Width : 1 280 pixels
Height : 720 pixels
Display aspect ratio : 16:9
Frame rate mode : Constant
Frame rate : 30.000 FPS
Color space : RGB
Chroma subsampling : 4:2:0
Bit depth : 8 bits
Scan type : Progressive
Bits/(Pixel*Frame) : 0.027
Stream size : 71.9 MiB (88%)
Encoded date : UTC 2019-08-11 11:50:29
Tagged date : UTC 2019-08-11 11:50:29
Color range : Limited
Matrix coefficients : Identity

Audio
ID : 2
Format : AAC
Format/Info : Advanced Audio Codec
Format profile : LC
Codec ID : mp4a-40-2
Duration : 13 min 15 s
Bit rate mode : Variable
Bit rate : 102 kb/s
Channel(s) : 2 channels
Channel positions : Front: L R
Sampling rate : 44.1 kHz
Frame rate : 43.066 FPS (1024 SPF)
Compression mode : Lossy
Stream size : 9.63 MiB (12%)
Encoded date : UTC 2019-08-11 11:50:29
Tagged date : UTC 2019-08-11 11:50:29

Screenshots

Krown Trading - Master Your Options

Krown Trading - Master Your Options

Krown Trading - Master Your Options

Krown Trading - Master Your Options

Krown Trading - Master Your Options

✅ Exclusive eLearning Videos ParRus-blogadd to bookmarks

Feel free to contact me PM
when links are dead or want any repost

Krown Trading - Master Your Options