Tags
Language
Tags

Slate Academy - Matthew Weiss Teaches Pop Mixing (2019)

Posted By: ParRus
Slate Academy - Matthew Weiss Teaches Pop Mixing (2019)

Slate Academy - Matthew Weiss Teaches Pop Mixing (2019)
WEBRip | English | MP4 + Project files | 632 x 368 | AVC ~201 kbps | 23.976 fps
AAC 128 Kbps 44.1 KHz | 2 channels | 2h 41mn | 10.84 GB
Genre: eLearning Video / Sound Processing, Music Production

• Learn pop mixing from veteran mixer Matthew Weiss • 36 lessons that take you step-by-step through Matt’s mixing process • Mix polished pop vocals that sit perfectly with the track • Learn how to get tight, punchy low end with perfectly balanced kick and bass • Get pro techniques for adding color and warmth to your mixes • Glue stacks of instruments together for cohesive mixes with pro compression techniques
Content:

Live - Matthew Weiss - Coming Down Project\
MW FL Studio session\
Reaper - Matthew Weiss - Coming Down Project\
Studio One - Matthew Weiss - Coming Down Project\
01 - Getting Started and Session Setup.mp4
02 - Top Down Mixing Using VCC.mp4
03 - Top Down Mixing Applying EQ.mp4
04 - Identifying Key Elements in the Mix.mp4
05 - Mixing the Layered Kick.mp4
06 - Processing the Accent Kick.mp4
07 - Top Down Mixing Applying Compression.mp4
08 - Adding Tone to the Electric Guitar.mp4
09 - Lead Vocals - Matching Vocal Tones.mp4
10 - Lead Vocals - Leveling and Applying EQ.mp4
11 - Lead Vocals - Adding Compression.mp4
12 - Smoothing the Lead Vocal and Matching Tones.mp4
13 - Vocal Mixing Pro Tips.mp4
14 - Applying Space and Reverb to the Vocals.mp4
15 - Adding Delay to the Lead Vocals.mp4
16 - Mixing the Snare Layers.mp4
17 - Adding Ambience to the Snare.mp4
18 - Finding the Tone for the Percussion.mp4
19 - Leveling and Processing the Bass.mp4
20 - Spreading the Chorus Bass.mp4
21 - Adding Extra Tone to the Chorus Bass.mp4
22 - Glueing Together the Percussion.mp4
23 - Fitting the Percussion into the Mix.mp4
24 - Processing the Background Vocals.mp4
25 - EQing the Background Vocals.mp4
26 - Shaping the Harmony Vocals.mp4
27 - Adding Reverb on the Hook Vocals.mp4
28 - Tweaking the Plucks.mp4
29 - Tweaking the Background Guitars.mp4
30 - Tweaking the Drums and Percussion to Fit Together.mp4
31 - Adding Texture to the Electric Guitars.mp4
32 - Processing the Fill.mp4
33 - Filling Out the Space in the Mix.mp4
34 - Deessing the Hook Vocals.mp4
35 - Finalizing Vocal Spaces.mp4
36 - Master Buss Adjustments.mp4

also You can watch my other helpful: sound processing-posts (if old file-links don't show activity, try copy-paste them to the address bar)

General
Complete name : 12 - Smoothing the Lead Vocal and Matching Tones.mp4
Format : MPEG-4
Format profile : Base Media
Codec ID : isom (isom/iso2/avc1/mp41)
File size : 13.5 MiB
Duration : 5 min 36 s
Overall bit rate mode : Variable
Overall bit rate : 337 kb/s

Video
ID : 2
Format : AVC
Format/Info : Advanced Video Codec
Format profile : High@L3
Format settings : 1 Ref Frames
Format settings, CABAC : No
Format settings, RefFrames : 1 frame
Format settings, GOP : M=1, N=71
Codec ID : avc1
Codec ID/Info : Advanced Video Coding
Duration : 5 min 36 s
Bit rate : 201 kb/s
Width : 632 pixels
Original width : 640 pixels
Height : 368 pixels
Original height : 360 pixels
Display aspect ratio : 1.717
Original display aspect ratio : 16:9
Frame rate mode : Variable
Frame rate : 23.976 (23976/1000) FPS
Minimum frame rate : 11.987 FPS
Maximum frame rate : 23.981 FPS
Color space : YUV
Chroma subsampling : 4:2:0
Bit depth : 8 bits
Scan type : Progressive
Bits/(Pixel*Frame) : 0.036
Stream size : 8.07 MiB (60%)
Writing library : x264 core 155
Encoding settings : cabac=0 / ref=1 / deblock=1:0:0 / analyse=0x3:0x113 / me=hex / subme=7 / psy=1 / psy_rd=1.00:0.00 / mixed_ref=0 / me_range=16 / chroma_me=1 / trellis=1 / 8x8dct=1 / cqm=0 / deadzone=21,11 / fast_pskip=1 / chroma_qp_offset=-2 / threads=11 / lookahead_threads=1 / sliced_threads=0 / nr=0 / decimate=1 / interlaced=0 / bluray_compat=0 / constrained_intra=0 / bframes=0 / weightp=0 / keyint=71 / keyint_min=36 / scenecut=0 / intra_refresh=0 / rc_lookahead=40 / rc=crf / mbtree=1 / crf=23.0 / qcomp=0.60 / qpmin=0 / qpmax=69 / qpstep=4 / vbv_maxrate=10000 / vbv_bufsize=10000 / crf_max=0.0 / nal_hrd=none / filler=0 / ip_ratio=1.40 / aq=1:1.00
mdhd_Duration : 336837

Audio
ID : 1
Format : AAC
Format/Info : Advanced Audio Codec
Format profile : LC
Codec ID : mp4a-40-2
Duration : 5 min 36 s
Bit rate mode : Variable
Bit rate : 128 kb/s
Maximum bit rate : 208 kb/s
Channel(s) : 2 channels
Channel positions : Front: L R
Sampling rate : 44.1 kHz
Frame rate : 43.066 FPS (1024 SPF)
Compression mode : Lossy
Stream size : 5.14 MiB (38%)
Screenshots

Slate Academy - Matthew Weiss Teaches Pop Mixing (2019)

Slate Academy - Matthew Weiss Teaches Pop Mixing (2019)

Slate Academy - Matthew Weiss Teaches Pop Mixing (2019)

Slate Academy - Matthew Weiss Teaches Pop Mixing (2019)

Slate Academy - Matthew Weiss Teaches Pop Mixing (2019)

✅ Exclusive eLearning Videos ParRus-blogadd to bookmarks

Feel free to contact me PM
when links are dead or want any repost

Slate Academy - Matthew Weiss Teaches Pop Mixing (2019)