Subcategories
Tags
Language
Tags

Todd Brown - MFA Live Event (2017)

Posted By: ParRus
Todd Brown - MFA Live Event (2017)

Todd Brown - MFA Live Event (2017)
WEBRip | English | MP4 + MP3 + PDF Guides | 720 x 480 | AVC ~1969 Kbps | 29.970 fps
AAC | 108 Kbps | 44.1 KHz | 2 channels | ~13 hours | 12.98 GB
Genre: eLearning Video / Business, Sales, Marketing

Marketers in attendance scribbled notes feverishly as they heard… "The Newest Customer Acquisition Secrets From 9 Legendary Marketers!" For the first and likely last time ever… Right now in Orlando, Florida…some of the world's best direct marketers have come together for one purpose – to help you bank more money from your business by giving you the most powerful customer-generating and business-scaling methods working today.
Your Hall Of Fame Faculty:

Todd Brown
"The Marketing Wizard Other Experts Go To When They Need Help With Their Own Campaigns!"

Clayton Makepeace
"The Highest Paid Copywriter On The Planet… And A Legend In The World Of Direct Marketing!"

Brian Kurtz
"The Former Vice President Of Boardroom Inc… And THE Authority On List Building and Monetization!"

Rich Schefren
"The Business Guru Behind Most Of The Biggest Names In Online
Marketing Today!"

Molly Pittman
"Digital Marketer's Vice President… And The Secret Weapon Behind DM's Groundbreaking Traffic Strategy!"

Mike Filsaime
"Internet Marketing Legend… And The Man Who Pioneered The Evergreen Webinar Tactic and Technology!"

Ryan Levesque
"The Man Behind One Of The Fastest Growing Trends In Online Marketing Today – The ASK Method!"

Jon Benson
"The Creator and Pioneer Of The Biggest Sales Breakthrough In Online Marketing - The Video Sales Letter!"

Dave Dee
"Former Marketing Director For GKIC" (a.k.a. Dan Kennedy's Right-Hand Marketing Man!)

Price: $697

also You can find my other last: Business-posts

General
Complete name : Rory Stern- How I Went From Being A Wanna-Be Entrepreneur To Seven-Figure Business Owner! - MFA Client Portal(1).mp4
Format : MPEG-4
Format profile : Base Media
Codec ID : isom (isom/iso2/avc1/mp41)
File size : 312 MiB
Duration : 20 min 56 s
Overall bit rate mode : Variable
Overall bit rate : 2 081 kb/s
Encoded date : UTC 1970-01-01 00:00:00
Tagged date : UTC 1970-01-01 00:00:00
Writing application : AVM.EXE

Video
ID : 1
Format : AVC
Format/Info : Advanced Video Codec
Format profile : Baseline@L3
Format settings : 3 Ref Frames
Format settings, CABAC : No
Format settings, RefFrames : 3 frames
Codec ID : avc1
Codec ID/Info : Advanced Video Coding
Duration : 20 min 56 s
Bit rate : 1 969 kb/s
Width : 720 pixels
Height : 480 pixels
Display aspect ratio : 3:2
Frame rate mode : Constant
Frame rate : 29.970 (30000/1001) FPS
Standard : NTSC
Color space : YUV
Chroma subsampling : 4:2:0
Bit depth : 8 bits
Scan type : Progressive
Bits/(Pixel*Frame) : 0.190
Stream size : 295 MiB (95%)
Encoded date : UTC 1970-01-01 00:00:00
Tagged date : UTC 1970-01-01 00:00:00

Audio
ID : 2
Format : AAC
Format/Info : Advanced Audio Codec
Format profile : LC
Codec ID : mp4a-40-2
Duration : 20 min 55 s
Bit rate mode : Variable
Bit rate : 108 kb/s
Channel(s) : 2 channels
Channel positions : Front: L R
Sampling rate : 44.1 kHz
Frame rate : 43.066 FPS (1024 SPF)
Compression mode : Lossy
Stream size : 16.2 MiB (5%)
Encoded date : UTC 1970-01-01 00:00:00
Tagged date : UTC 1970-01-01 00:00:00

Screenshots

Todd Brown - MFA Live Event (2017)

Todd Brown - MFA Live Event (2017)

Todd Brown - MFA Live Event (2017)

Todd Brown - MFA Live Event (2017)

Todd Brown - MFA Live Event (2017)

Exclusive eLearning Videos ParRus-blogadd to bookmarks

Todd Brown - MFA Live Event (2017)