Tags
Language
Tags

Mobile App Development with Android [repost]

Posted By: ParRus
Mobile App Development with Android [repost]

Mobile App Development with Android
WEBRip | English | MP4 | 1280 x 720 | AVC ~332 kbps | 24 fps
AAC | 60.5 Kbps | 44.1 KHz | 2 channels | ~41 hours | 6.71 GB
Genre: Video Tutorial

You'll create a real world social networking application! All of Android's core concepts in a production level project! In this series, you'll be introduced to all of the core concepts involved with building Android applications. Furthermore: you'll apply those concepts to build a real world social networking application that allows users to send their friends pictures, taken with the camera on their phone, complete with funny messages that can be decoded to your actual text message!
Action Bars
Navigation Drawers
Event Buses
List Views
Service Layers
Camera and Web API's
Push Notifications
External Logins
A full background with production level code
Over 40 hours of training!

Content:

01 Introduction to Android Development
02 Beginning our Application
03 Action Bars and Navigation Drawers
04 Top Level Navigation and Profile Activity
05 Event Bus and Service Layer
06 List Views
07 Contact Activities
08 Camera API and Send Message Activity
09 Inbox and Message Display Activities
10 Hooking up the Live Web API
11 Push Notifications, External Logins and Conclusion

General
Complete name : 003 List Views - Custom Adapters.mp4
Format : MPEG-4
Format profile : Base Media
Codec ID : isom
File size : 74.0 MiB
Duration : 26mn 12s
Overall bit rate mode : Variable
Overall bit rate : 395 Kbps
Encoded date : UTC 2015-06-02 21:50:14
Tagged date : UTC 2015-06-02 21:50:14

Video
ID : 1
Format : AVC
Format/Info : Advanced Video Codec
Format profile : Baseline@L3.1
Format settings, CABAC : No
Format settings, ReFrames : 3 frames
Codec ID : avc1
Codec ID/Info : Advanced Video Coding
Duration : 26mn 12s
Bit rate : 332 Kbps
Maximum bit rate : 2 670 Kbps
Width : 1 280 pixels
Height : 720 pixels
Display aspect ratio : 16:9
Frame rate mode : Constant
Frame rate : 24.000 fps
Color space : YUV
Chroma subsampling : 4:2:0
Bit depth : 8 bits
Scan type : Progressive
Bits/(Pixel*Frame) : 0.015
Stream size : 62.2 MiB (84%)
Writing library : Zencoder Video Encoding System
Encoded date : UTC 2015-06-02 21:46:06
Tagged date : UTC 2015-06-02 21:50:14

Audio
ID : 2
Format : AAC
Format/Info : Advanced Audio Codec
Format profile : LC
Codec ID : 40
Duration : 26mn 12s
Bit rate mode : Variable
Bit rate : 60.5 Kbps
Maximum bit rate : 106 Kbps
Channel(s) : 2 channels
Channel positions : Front: L R
Sampling rate : 44.1 KHz
Compression mode : Lossy
Stream size : 11.3 MiB (15%)
Encoded date : UTC 2015-06-02 21:46:06
Tagged date : UTC 2015-06-02 21:50:14
Screenshots

Mobile App Development with Android [repost]

Mobile App Development with Android [repost]

Mobile App Development with Android [repost]

Mobile App Development with Android [repost]

Mobile App Development with Android [repost]

Mobile App Development with Android [repost]

Exclusive eLearning Videos ParRus-blogadd to bookmarks

Mobile App Development with Android [repost]