Subcategories

Warp Academy - Music Hacking for Electronic Musicians (2016)

Posted By: ParRus
Warp Academy - Music Hacking for Electronic Musicians (2016)

Warp Academy - Music Hacking for Electronic Musicians
WEBRip | English | MP4 | 1280 x 720 | AVC ~749 kbps | 30 fps
AAC | 235 Kbps | 48.0 KHz | 2 channels | 13:47:06 | 6.05 GB
Genre: Video Tutorial / Sound Processing, Music Production, Sound Engineering

As an educator and musician I’m always working on developing and honing my own skills. This has me on a search for better and better teachers as I learn and grow. I’m excited to share that I’m bringing one of my very own teachers to the table to share his wisdom and expertise with you. I’m thrilled to introduce Ray Harmony, who’ll be teaching our newest course, Music Hacking for Electronic Musicians!
For the past year, I’ve been blessed to be working with Ray on Music theory and composition. Even though I’ve been a musician my whole life, the impact that working with Ray has had on my music, and my understanding of music, has been “nothing short of unreal”.

Music theory is the language of music, and if you’re making music, you’re using music theory. Music Hacking for Electronic Musicians is for everyone from complete beginners to professional producers who make music by ear and want to learn how to use the power of music theory to elevate their songwriting. This course will inspire and empower you to confidently create faultless songs on a watertight foundation of music theory.

also You can look my other last: Sound Processing-posts

General
Complete name : 01 Music Hacking Webinar Recording – July 5th 2015.mp4
Format : iso5
Codec ID : iso5
File size : 1.30 GiB
Duration : 3h 9mn
Overall bit rate mode : Variable
Overall bit rate : 987 Kbps

Video
ID : 1
Format : AVC
Format/Info : Advanced Video Codec
Format profile : High@L3.2
Format settings, CABAC : Yes
Format settings, ReFrames : 5 frames
Codec ID : avc1
Codec ID/Info : Advanced Video Coding
Duration : 3h 9mn
Bit rate : 749 Kbps
Width : 1 280 pixels
Height : 720 pixels
Display aspect ratio : 16:9
Frame rate mode : Constant
Frame rate : 30.000 fps
Color space : YUV
Chroma subsampling : 4:2:0
Bit depth : 8 bits
Scan type : Progressive
Bits/(Pixel*Frame) : 0.027
Stream size : 1 013 MiB (76%)
Writing library : x264 core 148 r11 3b70645
Encoding settings : cabac=1 / ref=5 / deblock=1:0:0 / analyse=0x3:0x113 / me=umh / subme=8 / psy=1 / psy_rd=1.00:0.00 / mixed_ref=1 / me_range=16 / chroma_me=1 / trellis=1 / 8x8dct=1 / cqm=0 / deadzone=21,11 / fast_pskip=1 / chroma_qp_offset=-2 / threads=22 / lookahead_threads=3 / sliced_threads=0 / nr=0 / decimate=1 / interlaced=0 / bluray_compat=0 / stitchable=1 / constrained_intra=0 / bframes=3 / b_pyramid=2 / b_adapt=2 / b_bias=0 / direct=3 / weightb=1 / open_gop=0 / weightp=2 / keyint=infinite / keyint_min=30 / scenecut=40 / intra_refresh=0 / rc_lookahead=50 / rc=crf / mbtree=1 / crf=20.0 / qcomp=0.60 / qpmin=5 / qpmax=69 / qpstep=4 / vbv_maxrate=2750 / vbv_bufsize=7500 / crf_max=0.0 / nal_hrd=none / filler=0 / ip_ratio=1.40 / aq=1:1.00
Color range : Limited
Color primaries : BT.709
Transfer characteristics : BT.709
Matrix coefficients : BT.709
mdhd_Duration : 11343133

Audio
ID : 2
Format : AAC
Format/Info : Advanced Audio Codec
Format profile : LC
Codec ID : 40
Duration : 3h 9mn
Source duration : 3h 9mn
Bit rate mode : Variable
Bit rate : 235 Kbps
Channel(s) : 2 channels
Channel positions : Front: L R
Sampling rate : 48.0 KHz
Compression mode : Lossy
Stream size : 318 MiB (24%)
Source stream size : 318 MiB (24%)
mdhd_Duration : 11343133

Screenshots

Warp Academy - Music Hacking for Electronic Musicians (2016)

Warp Academy - Music Hacking for Electronic Musicians (2016)

Warp Academy - Music Hacking for Electronic Musicians (2016)

Warp Academy - Music Hacking for Electronic Musicians (2016)

Warp Academy - Music Hacking for Electronic Musicians (2016)

Warp Academy - Music Hacking for Electronic Musicians (2016)

Warp Academy - Music Hacking for Electronic Musicians (2016)

Exclusive eLearning Videos ParRus-blogadd to bookmarks

Warp Academy - Music Hacking for Electronic Musicians (2016)