Tags
Language
Tags

Music Production & Mixing Audio with Kiko Cibrian

Posted By: ParRus
Music Production & Mixing Audio with Kiko Cibrian

Music Production & Mixing Audio with Kiko Cibrian
WEBRip | Español | MP4 | 1920 x 1080 | AVC ~3869 kbps | 23.976 fps
AAC 256 Kbps 48.0 KHz | 2 channels | ~3.5 hours | 6.76 GB
Genre: eLearning Video / Sound Processing, Music Production

Kiko Cibrian comparte varias técnicas de mezcla que utiliza a la hora de trabajar sus producciones. Este evento esta cargado de información muy valiosa que te ahorrará años de búsqueda gracias a la amplia experiencia de Kiko en el área musical. Desde técnicas de compresión y ecualización hasta tips para grabar, este evento te dará una gran cantidad de herramientas que podrás utilizar y aplicar luego en tus producciones para llevarlas al siguiente nivel. Podrás ver procesos en el canal maestro, técnicas en las reverbs y delays para generar espacio.
Compresión paralela en diferentes instrumentos, trucos, y mucho más. También Kiko habla de maneras en las que el y su asistente microfonean las cuerdas para lograr un sonido grande. Este sin lugar a dudas es un evento que no te puedes perder si estás buscando una mejora en tu música!

Kiko Cibrian shares several mixing techniques that she uses when working with her productions. This event is loaded with valuable information that will save you years of searching thanks to Kiko's extensive experience in the music field. From compression and equalization techniques to tips to record, this event will give you a large number of tools that you can use and then apply in your productions to take them to the next level. You can see processes in the master channel, techniques in the reverbs and delays to generate space. Parallel compression in different instruments, tricks, and much more. Kiko also talks about ways in which he and his assistant microfine the strings to achieve a big sound. This is undoubtedly an event that you can not miss if you are looking for an improvement in your music!

also You can find my other useful: Sound Processing-posts

General
Complete name : Kiko Cibrian Capítulo 3.mp4
Format : MPEG-4
Format profile : Base Media
Codec ID : iso5 (iso6/mp41)
File size : 1.33 GiB
Duration : 46 min 8 s
Overall bit rate : 4 130 kb/s
Writing application : Lavf57.48.103

Video
ID : 1
Format : AVC
Format/Info : Advanced Video Codec
Format profile : High@L4
Format settings : CABAC / 4 Ref Frames
Format settings, CABAC : Yes
Format settings, RefFrames : 4 frames
Codec ID : avc1
Codec ID/Info : Advanced Video Coding
Duration : 46 min 8 s
Bit rate : 3 869 kb/s
Width : 1 920 pixels
Height : 1 080 pixels
Display aspect ratio : 16:9
Frame rate mode : Constant
Frame rate : 23.976 (24000/1001) FPS
Color space : YUV
Chroma subsampling : 4:2:0
Bit depth : 8 bits
Scan type : Progressive
Bits/(Pixel*Frame) : 0.078
Stream size : 1.25 GiB (94%)
Writing library : x264 core 148 r10 3f5ed56
Encoding settings : cabac=1 / ref=4 / deblock=1:0:0 / analyse=0x3:0x113 / me=umh / subme=8 / psy=1 / psy_rd=1.00:0.00 / mixed_ref=1 / me_range=16 / chroma_me=1 / trellis=1 / 8x8dct=1 / cqm=0 / deadzone=21,11 / fast_pskip=1 / chroma_qp_offset=-2 / threads=34 / lookahead_threads=5 / sliced_threads=0 / nr=0 / decimate=1 / interlaced=0 / bluray_compat=0 / stitchable=1 / constrained_intra=0 / bframes=3 / b_pyramid=2 / b_adapt=2 / b_bias=0 / direct=3 / weightb=1 / open_gop=0 / weightp=2 / keyint=infinite / keyint_min=23 / scenecut=40 / intra_refresh=0 / rc_lookahead=50 / rc=crf / mbtree=1 / crf=20.0 / qcomp=0.60 / qpmin=5 / qpmax=69 / qpstep=4 / vbv_maxrate=4950 / vbv_bufsize=13500 / crf_max=0.0 / nal_hrd=none / filler=0 / ip_ratio=1.40 / aq=1:1.00
Color range : Limited
Color primaries : BT.709
Transfer characteristics : BT.709
Matrix coefficients : BT.709

Audio
ID : 2
Format : AAC
Format/Info : Advanced Audio Codec
Format profile : LC
Codec ID : mp4a-40-2
Duration : 46 min 8 s
Bit rate : 256 kb/s
Channel(s) : 2 channels
Channel positions : Front: L R
Sampling rate : 48.0 kHz
Frame rate : 46.875 FPS (1024 SPF)
Compression mode : Lossy
Stream size : 84.5 MiB (6%)
Default : Yes
Alternate group : 1
Screenshots

Music Production & Mixing Audio with Kiko Cibrian

Music Production & Mixing Audio with Kiko Cibrian

Music Production & Mixing Audio with Kiko Cibrian

Music Production & Mixing Audio with Kiko Cibrian

Exclusive eLearning Videos ParRus-blogadd to bookmarks

Music Production & Mixing Audio with Kiko Cibrian