Subcategories

ADSR Sounds - Music Theory for Electronic Music Producers [repost]

Posted By: ParRus
ADSR Sounds - Music Theory for Electronic Music Producers [repost]

ADSR Sounds - Music Theory for Electronic Music Producers
WEBRip | English | M4V + Project files | 1280 x 720 | AVC ~1108 kbps | 30 fps
AAC | 247 Kbps | 44.1 KHz | 2 channels | ~3 hours | 7.5 GB
Genre: Video Tutorial / Sound Processing

Have you ever had musical ideas in your head but didn’t have the knowledge to actually write the music? The ability to write your own music isn’t as hard as you might think. In this 3 hour course you will discover the fundamentals of music theory and learn how to turn just a few chords and a simple melody into a full track.
This 2 part video not only comes with the knowledge of music theory and how to use it in an actual track, but we also included a section on how to practice these techniques.
TAKE YOUR PRODUCTIONS TO THE NEXT LEVEL
This course is split into 2 sections, Part 1: Music Theory and Part 2: Using Music Theory to Make a Full Fledged Electronic Track.
In this tutorial we will show you how you can transform yourself into a real producer with real music knowledge.
Once we cover all the music theory in Part 1, Kid Zero will take a few chords and melodies and transform them from being just a few notes on the piano to a full 4 minute track.
This tutorial will focus on making a progressive house track, but everything you learn can be applied to any style of music.


Part 1 - Music Theory
1. Intro
2. Understanding whole steps and half steps
3. Identifying major and minor chords
4. Singing a note and building a major or minor chord around it
5. Inversions
6. Taking a major or minor scale and playing a melody over it
7. Modes
8. Coming up with a tune

Part 2 - Producing The Track
1. Before we jump into the music
2. Lets talk structure
3. Starting with the breadown build ups
4. FX and drums
5. Drop Section
6. Adding an intro to our song
7. Mastering the track

also You can look my other last: Sound Processing-posts

General
Complete name : 2. Understanding whole steps and half steps.m4v
Format : MPEG-4
Format profile : Base Media / Version 2
Codec ID : mp42
File size : 165 MiB
Duration : 17mn 1s
Overall bit rate mode : Variable
Overall bit rate : 1 357 Kbps
Encoded date : UTC 2013-09-13 18:37:49
Tagged date : UTC 2013-09-13 18:40:29

Video
ID : 1
Format : AVC
Format/Info : Advanced Video Codec
Format profile : Baseline@L3.1
Format settings, CABAC : No
Format settings, ReFrames : 5 frames
Codec ID : avc1
Codec ID/Info : Advanced Video Coding
Duration : 17mn 1s
Bit rate mode : Variable
Bit rate : 1 108 Kbps
Width : 1 280 pixels
Height : 720 pixels
Display aspect ratio : 16:9
Frame rate mode : Constant
Frame rate : 30.000 fps
Color space : YUV
Chroma subsampling : 4:2:0
Bit depth : 8 bits
Scan type : Progressive
Bits/(Pixel*Frame) : 0.040
Stream size : 135 MiB (82%)
Encoded date : UTC 2013-09-13 18:37:49
Tagged date : UTC 2013-09-13 18:40:29
Color primaries : BT.709-2, SMPTE 274M, SMPTE 296M
Transfer characteristics : BT.709-2, SMPTE 170M, SMPTE 274M, SMPTE 293M, SMPTE 296M
Matrix coefficients : BT.709-2, SMPTE 274M, SMPTE 296M

Audio
ID : 2
Format : AAC
Format/Info : Advanced Audio Codec
Format profile : LC
Codec ID : 40
Duration : 17mn 1s
Bit rate mode : Variable
Bit rate : 247 Kbps
Maximum bit rate : 455 Kbps
Channel(s) : 2 channels
Channel positions : Front: L R
Sampling rate : 44.1 KHz
Compression mode : Lossy
Stream size : 30.0 MiB (18%)
Encoded date : UTC 2013-09-13 18:37:49
Tagged date : UTC 2013-09-13 18:38:32

Screenshots

ADSR Sounds - Music Theory for Electronic Music Producers [repost]

ADSR Sounds - Music Theory for Electronic Music Producers [repost]

ADSR Sounds - Music Theory for Electronic Music Producers [repost]

ADSR Sounds - Music Theory for Electronic Music Producers [repost]

ADSR Sounds - Music Theory for Electronic Music Producers [repost]

Exclusive eLearning Videos ParRus-blogadd to bookmarks

ADSR Sounds - Music Theory for Electronic Music Producers [repost]