Tags
Language
Tags

Natalie Portman Teaches Acting (2019)

Posted By: ParRus
Natalie Portman Teaches Acting (2019)

Natalie Portman Teaches Acting (2019)
WEBRip | English | MP4 | 1920 x 1080 | AVC ~7896 kbps | 25 fps
AAC 132 Kbps 44.1 KHz | 2 channels | 02:39:08 | 9.02 GB
Genre: eLearning Video / Acting Skills

Oscar-winning actor Natalie Portman shares the techniques at the heart of her acting process—and teaches you how to tackle your next role. Enroll today to get access to video lessons and exclusive materials. Learn at your own pace on mobile or desktop.
Make every role extraordinary
Natalie Portman began acting professionally at 12 and won an Oscar before she turned 30. As a self-taught actor, she uses personal techniques to create compelling, complex characters. In her first-ever acting class, Natalie shows how empathy is at the core of every great performance, how to bring real-life details into every role, and how to build your own creative process. Get ready for your breakout performance.

General
Complete name : 04.Developing Your Character's Physicality.mp4
Format : MPEG-4
Format profile : Base Media / Version 2
Codec ID : mp42 (mp42)
File size : 585 MiB
Duration : 10 min 8 s
Overall bit rate : 8 069 kb/s
Codirector : codirector
Production studio : studio
ContentType : Unknown Type
Encoded date : UTC 2019-04-04 12:50:02
Tagged date : UTC 2019-04-04 12:50:02

Video
ID : 1
Format : AVC
Format/Info : Advanced Video Codec
Format profile : High@L5.1
Format settings : CABAC / 1 Ref Frames
Format settings, CABAC : Yes
Format settings, RefFrames : 1 frame
Codec ID : avc1
Codec ID/Info : Advanced Video Coding
Duration : 10 min 8 s
Bit rate : 7 896 kb/s
Width : 1 920 pixels
Height : 1 080 pixels
Display aspect ratio : 16:9
Frame rate mode : Constant
Frame rate : 25.000 FPS
Color space : YUV
Chroma subsampling : 4:2:0
Bit depth : 8 bits
Scan type : Progressive
Bits/(Pixel*Frame) : 0.152
Stream size : 572 MiB (98%)
Language : English
Color range : Limited
Color primaries : BT.709
Transfer characteristics : BT.709
Matrix coefficients : BT.709

Audio
ID : 2
Format : AAC
Format/Info : Advanced Audio Codec
Format profile : LC
Codec ID : mp4a-40-2
Duration : 10 min 8 s
Bit rate mode : Constant
Bit rate : 132 kb/s
Channel(s) : 2 channels
Channel positions : Front: L R
Sampling rate : 44.1 kHz
Frame rate : 43.066 FPS (1024 SPF)
Compression mode : Lossy
Stream size : 9.57 MiB (2%)
Title : Stereo
Language : English
Default : Yes
Alternate group : 1
Screenshots

Natalie Portman Teaches Acting (2019)

Natalie Portman Teaches Acting (2019)

Natalie Portman Teaches Acting (2019)

Natalie Portman Teaches Acting (2019)

Exclusive eLearning Videos ParRus-blogadd to bookmarks

Natalie Portman Teaches Acting (2019)