Tags
Language
Tags

Olly Steele, Learn to play: Open

Posted By: ParRus
Olly Steele, Learn to play: Open

Olly Steele, Learn to play: Open
WEBRip | English | MP4 + MP3 jam tracks | 1920 x 1080 | AVC ~3988 kbps | 30 fps
AAC 192 Kbps 48.0 KHz | 2 channels | 01:15:00 | 1.99 GB
Genre: eLearning Video / Guitar lesson

Huge finger twisting riffs, groove heavy chords and a solo that takes no prisoners. Olly Steele’s “Open” is a stone cold banger, and it’s ready for you to learn right here.
What's included
4 Primer Lessons
11 Breakdown Lessons
9 Slow Sections (Video/Audio)
Full Playthrough (Video/Audio)
Backing Tracks
Full Tab/Notation

also You can find my other helpful guitar lesson-posts
(if old file-links don't show activity, try copy-paste them to the address bar)

General
Complete name : Primer 1.mp4
Format : MPEG-4
Format profile : Base Media
Codec ID : isom (isom/iso2/avc1/mp41)
File size : 46.3 MiB
Duration : 1 min 32 s
Overall bit rate mode : Variable
Overall bit rate : 4 192 kb/s

Video
ID : 1
Format : AVC / AVC
Format/Info : Advanced Video Codec
Format profile : Baseline@L4 / Baseline@L4
Format settings : 3 Ref Frames / 3 Ref Frames
Format settings, CABAC : No / No
Format settings, RefFrames : 3 frames / 3 frames
Format settings, GOP : M=1, N=25 / M=1, N=25
Codec ID : avc1
Codec ID/Info : Advanced Video Coding
Duration : 1 min 32 s
Bit rate mode : Variable
Bit rate : 3 988 kb/s
Maximum bit rate : 2 000 kb/s
Width : 1 920 pixels
Original width : 1 920 pixels / 1 920 pixels
Height : 1 080 pixels
Original height : 1 080 pixels / 1 080 pixels
Display aspect ratio : 16:9
Frame rate mode : Variable
Frame rate : 29.162 FPS
Minimum frame rate : 10.000 FPS
Maximum frame rate : 1 024.000 FPS
Original frame rate : 30.000 FPS
Color space : YUV
Chroma subsampling : 4:2:0 / 4:2:0
Bit depth : 8 bits / 8 bits
Scan type : Progressive / Progressive
Bits/(Pixel*Frame) : 0.066
Stream size : 44.0 MiB (95%)

Audio
ID : 2
Format : AAC
Format/Info : Advanced Audio Codec
Format profile : LC
Codec ID : mp4a-40-2
Duration : 1 min 32 s
Bit rate mode : Variable
Bit rate : 192 kb/s
Maximum bit rate : 256 kb/s
Channel(s) : 2 channels
Channel positions : Front: L R
Sampling rate : 48.0 kHz
Frame rate : 46.875 FPS (1024 SPF)
Compression mode : Lossy
Stream size : 2.15 MiB (5%)
Default : Yes
Alternate group : 1
Screenshots

Olly Steele, Learn to play: Open

Olly Steele, Learn to play: Open

Olly Steele, Learn to play: Open

Olly Steele, Learn to play: Open

✅ Exclusive eLearning Videos ParRus-blogadd to bookmarks
Feel free to contact me PM
when links are dead or want any repost

Olly Steele, Learn to play: Open