Tags
Language
Tags
April 2024
Su Mo Tu We Th Fr Sa
31 1 2 3 4 5 6
7 8 9 10 11 12 13
14 15 16 17 18 19 20
21 22 23 24 25 26 27
28 29 30 1 2 3 4

TradeBuddy University - Penny Stock Mastery

Posted By: ParRus
TradeBuddy University - Penny Stock Mastery

TradeBuddy University - Penny Stock Mastery
WEBRip | English | MP4 | 960 x 540 | AVC ~350 Kbps | 23.976 fps
AAC | 96 Kbps | 44.1 KHz | 2 channels | ~12 hours | 4.3 GB
Genre: eLearning Video / Forex, Trading, Stock

LIFETIME MENTORSHIP on how to become a consistently profitable Penny Stock Day Trader!
Course Curriculum
- RISK DISCLAIMER AND REFUND POLICY
- Welcome To The Course! (4:15)
- EXTREMELY IMPORTANT TO READ!!!!!!**SCANNER FILES & CHATROOM ACCESS**
- My Journey As A Day Trader (27:19)
- Stock Market Terminology Part 1 (7:41)
- Stock Market Terminology Part 2 (33:36)
- Importance of Paper Trading (10:53)
- Differences between a Cash and Margin Account (4:58)
- How To Get Around The Pattern Day Trader Rule (8:03)
- The Most Popular Brokers Today & Choosing The Right One For You (11:22)
- Computer and Trading Setups (7:21)
- How I Use E-Trade PRO (18:27)
- How To Use EquityFeed (39:36)
- Stock Order Types (6:36)
- Placing A Stock Order (19:23)
- How To Grow A Small Account (19:02)

Understanding Technical Analysis
- Basic Techincal Analysis & Trader Psychology (10:12)
- Overview of Support and Resistance & Candle Stick Patterns (24:40)
- Continuation Patterns (22:28)
- Reversal Chart Patterns (12:52)

Basics of What Stocks To Trade
- Basics of What Stocks To Trade (17:15)
- Understanding Level 2 (15:01)

Advanced Technical Analysis
- Technical Overlay - Moving Averages (18:39)
- Technical Overlay - Moving Averages Pt 2 (3:33)
- Technical Overlay - VWAP (8:39)
- Technical Overlay - Bollinger Bands (15:53)
- Technical Oscillator - Stochastics (13:20)

Understanding A News Catalyst
- Positive News & Press Releases (18:26)
- Negative News & Press Releases (6:03)
- SEC Filings & General News Thoughts (9:22)

Fundamentals of OTC & NASDAQ Trading
- Fundamentals of OTC Trading (49:57)
- Fundamentals of NASDAQ Trading (31:34)

My Most Profitable Chart Patterns & Strategies
- Pattern #1 (15:14)
- Pattern #2 (10:27)
- Strategy #1 (17:41)
- Strategy #2 (9:26)

Final Thoughts
- Final thoughts (15:45)

Value: $997
More Info: Salepage

(if old file-links don't show activity, try copy-paste them to the address bar)
You can find my other useful: Trading-posts

General
Complete name : 15. Placing A Stock Order.mp4
Format : MPEG-4
Format profile : Base Media
Codec ID : isom (isom/iso2/avc1/mp41)
File size : 62.5 MiB
Duration : 19 min 23 s
Overall bit rate mode : Variable
Overall bit rate : 451 kb/s
Encoded date : UTC 2019-09-26 19:35:37
Tagged date : UTC 2019-09-26 19:35:37
Writing application : Lavf51.12.1

Video
ID : 1
Format : AVC
Format/Info : Advanced Video Codec
Format profile : High@L3.1
Format settings : CABAC / 1 Ref Frames
Format settings, CABAC : Yes
Format settings, RefFrames : 1 frame
Format settings, GOP : M=1, N=12
Codec ID : avc1
Codec ID/Info : Advanced Video Coding
Duration : 19 min 23 s
Bit rate mode : Variable
Bit rate : 350 kb/s
Width : 960 pixels
Height : 540 pixels
Display aspect ratio : 16:9
Frame rate mode : Constant
Frame rate : 23.976 (24000/1001) FPS
Color space : RGB
Chroma subsampling : 4:2:0
Bit depth : 8 bits
Scan type : Progressive
Bits/(Pixel*Frame) : 0.028
Stream size : 48.5 MiB (78%)
Encoded date : UTC 2019-09-26 19:35:37
Tagged date : UTC 2019-09-26 19:35:37
Color range : Limited
Matrix coefficients : Identity

Audio
ID : 2
Format : AAC
Format/Info : Advanced Audio Codec
Format profile : LC
Codec ID : mp4a-40-2
Duration : 19 min 23 s
Bit rate mode : Variable
Bit rate : 96.0 kb/s
Channel(s) : 2 channels
Channel positions : Front: L R
Sampling rate : 44.1 kHz
Frame rate : 43.066 FPS (1024 SPF)
Compression mode : Lossy
Stream size : 13.4 MiB (21%)
Encoded date : UTC 2019-09-26 19:35:37
Tagged date : UTC 2019-09-26 19:35:37

Screenshots

TradeBuddy University - Penny Stock Mastery

TradeBuddy University - Penny Stock Mastery

TradeBuddy University - Penny Stock Mastery

TradeBuddy University - Penny Stock Mastery

✅ Exclusive eLearning Videos ParRus-blogadd to bookmarks

Feel free to contact me PM
when links are dead or want any repost

TradeBuddy University - Penny Stock Mastery