Subcategories

Truefire - Playing Modal Made Easy with David Wallimann

Posted By: ParRus
Truefire - Playing Modal Made Easy with David Wallimann

Truefire - Playing Modal Made Easy with David Wallimann
WEBRip | English | MP4 + MP3 + PDF Guides | 864 x 486 | AVC ~972 kbps | 29.970 fps
AAC 128 Kbps 44.1 KHz | 2 channels | 01:21:40 | 746 MB
Genre: eLearning Video / Guitar lesson

Flavor Your Solos with Creative Modal Approaches One of the most requested topics I've had in my 20 some years of teaching guitar has been modes. A lot of information can be found on modes, but let's face it — they can still be confusing! I put together this course together to demystify modes for you and clear up all of the confusion.
I will share with you everything you need to know to fully understand modes and most importantly how to use them musically. I like to see modes as different alphabets that can be used to express ideas. By approaching modes like a set of different letters, we can quickly start use them according to the type of speech we want to use on our instrument.

This course is a very hands on where students will be given specific assignments to complete. These assignments are designed to help you apply what you've learned. First, we'll go through the theory and define what modes are. This step is fundamental as it will help you understand which notes to target to sound modal.

Next, we'll go through all the scale and arpeggio positions you'll need to improvise. I will show you how to create killer licks using simple tools such as the pentatonic scale and basic arpeggio shapes. We will also learn the basics of creating chords progressions that will work over specific modes. By the end of this course, you will have a much better grasp on modes.

The course comes packed with custom backing tracks that you will use in your assignments. Each track was specifically written to accompany this course and will speed up your learning progress. Key examples are tabbed and notated for your practice, reference and study purposes. You’ll also get Guitar Pro files so that you can play, loop and/or slow down the tab and notation as you work through the lessons.

If you feel that your improvisations are staling and need fresh ideas, then grab your guitar and let's get dig in to Playing Modal Made Easy!

NOTE! David Wallimann organized the course into 8 weekly sections for those students that prefer to have a specified regimen of material across a specified time schedule. However, for those students who prefer to work at their own pace, or even skip around you are certainly encouraged to approach the course in that way as well.

also You can find my other last: Guitar Lessons-posts

General
Complete name : \3 (4).mp4
Format : MPEG-4
Format profile : Base Media
Codec ID : isom (isom/iso2/avc1/mp41)
File size : 18.2 MiB
Duration : 2 min 16 s
Overall bit rate : 1 119 kb/s
Writing application : Lavf54.59.107

Video
ID : 1
Format : AVC
Format/Info : Advanced Video Codec
Format profile : Baseline@L3.1
Format settings, CABAC : No
Format settings, ReFrames : 3 frames
Codec ID : avc1
Codec ID/Info : Advanced Video Coding
Duration : 2 min 16 s
Bit rate : 972 kb/s
Width : 864 pixels
Height : 486 pixels
Display aspect ratio : 16:10
Frame rate mode : Variable
Frame rate : 29.970 (29970/1000) FPS
Minimum frame rate : 15.000 FPS
Maximum frame rate : 30.000 FPS
Color space : YUV
Chroma subsampling : 4:2:0
Bit depth : 8 bits
Scan type : Progressive
Bits/(Pixel*Frame) : 0.077
Stream size : 16.0 MiB (88%)
Writing library : x264 core 129 r2245 bc13772
Encoding settings : cabac=0 / ref=3 / deblock=1:0:0 / analyse=0x1:0x111 / me=hex / subme=7 / psy=1 / psy_rd=1.00:0.00 / mixed_ref=1 / me_range=16 / chroma_me=1 / trellis=1 / 8x8dct=0 / cqm=0 / deadzone=21,11 / fast_pskip=1 / chroma_qp_offset=-2 / threads=3 / lookahead_threads=1 / sliced_threads=0 / nr=0 / decimate=1 / interlaced=0 / bluray_compat=0 / constrained_intra=0 / bframes=0 / weightp=0 / keyint=250 / keyint_min=25 / scenecut=40 / intra_refresh=0 / rc_lookahead=40 / rc=2pass / mbtree=1 / bitrate=972 / ratetol=1.0 / qcomp=0.60 / qpmin=0 / qpmax=69 / qpstep=4 / cplxblur=20.0 / qblur=0.5 / ip_ratio=1.40 / aq=1:1.00

Audio
ID : 2
Format : AAC
Format/Info : Advanced Audio Codec
Format profile : LC
Codec ID : 40
Duration : 2 min 16 s
Bit rate mode : Constant
Bit rate : 128 kb/s
Channel(s) : 2 channels
Channel positions : Front: L R
Sampling rate : 44.1 kHz
Frame rate : 43.066 FPS (1024 spf)
Compression mode : Lossy
Stream size : 2.09 MiB (11%)
Language : English
Default : Yes
Alternate group : 1
Screenshots

Truefire - Playing Modal Made Easy with David Wallimann

Truefire - Playing Modal Made Easy with David Wallimann

Truefire - Playing Modal Made Easy with David Wallimann

Truefire - Playing Modal Made Easy with David Wallimann

Truefire - Playing Modal Made Easy with David Wallimann

Exclusive eLearning Videos ParRus-blogadd to bookmarks

Feel free to contact me PM
when links are dead or want any repost

Truefire - Playing Modal Made Easy with David Wallimann