Tags
Language
Tags

PLC Programming - Learn the basics with CoDeSys

Posted By: ParRus
PLC Programming - Learn the basics with CoDeSys

PLC Programming - Learn the basics with CoDeSys
WEBRip | English | MP4 + Project Files | 1280 x 720 | AVC ~529 kbps | 30 fps
AAC | 128 Kbps | 44.1 KHz | 2 channels | Subs: English (.srt) | ~7 hours | 2.76 GB
Genre: eLearning Video / IT & Software, PLC

This course will provide anyone with the basic knowledge and tools to write PLC applications and software from scratch
What you'll learn
You will learn what a PLC is, how it works and all its internal mechanisms
You will be able to write PLC software and applications on your own and to start your career in industrial automation
You will learn all the characteristics and definitions of the IEC 61131-3 standard
You will learn all the IEC 61131-3 languages (ST, LD, FBD, SFC) and see the pros and cons of all of them
You will have exercises and practical examples available, accompanied by graphic simulations, for targeted and effective learning
You will learn to use the CoDeSys 3 development environment in its entirety and you will be able to use it to develop applications for different platforms
You will learn the "best practices" and the main programming patterns for industrial automation that help developers write quality software

Requirements
There are no mandatory requirements for this course. A basic knowledge of electronics and computer science may help you, but a technical mentality and a desire to learn is all you need for this course.
It is not necessary to have a physical PLC, or to have software already installed on your PC.

Description
This course will allow anyone to learn the basics on how to program a PLC.

It is not necessary to have any previous experience because all the concepts will be clearly explained from the basics.

We will use CoDeSys, a development environment to write our PLC programs and we will use its simulation functionality to interact with processes and applications without the actual need of a real PLC.

At the end of the course you will be able to write your PLC applications and software and to apply automation programming patterns to write quality code.

This knowledge will allow you to pursue different careers in the industrial automation field.


Who this course is for:
Anyone who has the desire to learn how to develop software for PLC or who wants to pursue a career in industrial automation.

also You can find my other helpful Programming-posts
(if old file-links don't show activity, try copy-paste them to the address bar)

General
Complete name : 2. Important Functionalities Standard Function Blocks.mp4
Format : MPEG-4
Format profile : Base Media
Codec ID : isom (isom/iso2/avc1/mp41)
File size : 34.2 MiB
Duration : 7 min 11 s
Overall bit rate : 665 kb/s
Writing application : Lavf58.12.100

Video
ID : 1
Format : AVC
Format/Info : Advanced Video Codec
Format profile : Main@L3.1
Format settings : CABAC / 4 Ref Frames
Format settings, CABAC : Yes
Format settings, RefFrames : 4 frames
Format settings, GOP : M=4, N=60
Codec ID : avc1
Codec ID/Info : Advanced Video Coding
Duration : 7 min 11 s
Bit rate : 529 kb/s
Nominal bit rate : 3 000 kb/s
Width : 1 280 pixels
Height : 720 pixels
Display aspect ratio : 16:9
Frame rate mode : Constant
Frame rate : 30.000 FPS
Color space : YUV
Chroma subsampling : 4:2:0
Bit depth : 8 bits
Scan type : Progressive
Bits/(Pixel*Frame) : 0.019
Stream size : 27.2 MiB (79%)
Writing library : x264 core 148
Encoding settings : cabac=1 / ref=3 / deblock=1:0:0 / analyse=0x1:0x111 / me=umh / subme=6 / psy=1 / psy_rd=1.00:0.00 / mixed_ref=1 / me_range=16 / chroma_me=1 / trellis=1 / 8x8dct=0 / cqm=0 / deadzone=21,11 / fast_pskip=1 / chroma_qp_offset=-2 / threads=22 / lookahead_threads=3 / sliced_threads=0 / nr=0 / decimate=1 / interlaced=0 / bluray_compat=0 / constrained_intra=0 / bframes=3 / b_pyramid=2 / b_adapt=1 / b_bias=0 / direct=1 / weightb=1 / open_gop=0 / weightp=2 / keyint=60 / keyint_min=6 / scenecut=0 / intra_refresh=0 / rc_lookahead=60 / rc=cbr / mbtree=1 / bitrate=3000 / ratetol=1.0 / qcomp=0.60 / qpmin=0 / qpmax=69 / qpstep=4 / vbv_maxrate=3000 / vbv_bufsize=6000 / nal_hrd=none / filler=0 / ip_ratio=1.40 / aq=1:1.00

Audio
ID : 2
Format : AAC
Format/Info : Advanced Audio Codec
Format profile : LC
Codec ID : mp4a-40-2
Duration : 7 min 11 s
Bit rate mode : Constant
Bit rate : 128 kb/s
Channel(s) : 2 channels
Channel positions : Front: L R
Sampling rate : 44.1 kHz
Frame rate : 43.066 FPS (1024 SPF)
Compression mode : Lossy
Stream size : 6.59 MiB (19%)
Default : Yes
Alternate group : 1
Screenshots

PLC Programming - Learn the basics with CoDeSys

PLC Programming - Learn the basics with CoDeSys

PLC Programming - Learn the basics with CoDeSys

PLC Programming - Learn the basics with CoDeSys

PLC Programming - Learn the basics with CoDeSys

✅ Exclusive eLearning Videos ParRus-blogadd to bookmarks
Feel free to contact me PM
when links are dead or want any repost

PLC Programming - Learn the basics with CoDeSys