Subcategories
Please register here if you want to download anything!

If domain in your address bar is different from the list below
PLEASE LEAVE THAT SITE IMMEDIATELY
❗IT'S A DANGEROUS FAKE❗



Spicy Magazines for Men! ;-)

Price Action Room - Tape Reading Mini-Mentorship

Posted By: ParRus
Price Action Room - Tape Reading Mini-Mentorship

Price Action Room - Tape Reading Mini-Mentorship
WEBRip | English | AVI | 1024 x 768 | AVC ~445 Kbps | 30 fps
PCM | 352.8 Kbps | 22.05 KHz | 1 channel | 24:03:17 | 7.98 GB
Genre: eLearning Video / Trading, Stock

Twenty-four people were selected to attend this comprehensive 10 day workshop. They varied widely in their experience – there were 2 traders who had never yet placed a live trade, a 30-year S&P pit veteran trying to transition to the screen, and 21 others somewhere in the middle.
Despite the vast difference in experience and skill, they were there for one simple reason: they knew that understanding order flow was critical to their success as short-term traders.

Each attendee had the opportunity to ask for a refund if they felt the instruction was not living up to their expectations – and yet not one person requested a refund. In fact, one trader made this comment: “You are selling this way too cheap! I have spent nearly $60,000 on education over the past ten years, and I learned more in the first two sessions than in everything else I bought put together. I finally get it – THANK YOU SO MUCH!”

Each of the attendees was invited to bring their own trades to the table so that they could get personalized guidance on what they already felt comfortable with. Some attendees received help in breaking away from indicators; others got guidance in trade management. Everyone received blunt but honest advice about what is required to succeed in today’s brutal market environment.

The entire workshop was recorded, and is now available as a set of four high-quality recordings. You will receive over 22 hours of instruction covering the topics listed below, and as well can view several hours of recorded trades so that you can rewind and play again to understand how to start using these skills in your own trading.

Topics covered in the recording:

– Platform setup – if it isn’t done right, you’re going to miss the most important information streaming into your tradestation.
– A thorough, hands-on discussion of how to read the order flow on your Time & Sales window.
– Wish you could break away from lagging indicators? We’ll show you how!
– See how to correlate the tape back to your DOM and charts.
– Price action trading from a chart? Learn how to confirm YOUR chart setups with the tape.
– Stuck in the destructive cycle of SIM trading? We’re going to show you how to develop the confidence to trade real money.
– Learn how to deal with damaging emotions such as fear and greed.
– Wish you knew how to manage your trades? Find out numerous professional strategies.
– Still don’t have a trading plan? We’re going to discuss numerous facets of a professional trader’s action plan.
– Learn how to track the market manipulators and large traders using only your DOM and Time & Sales.
– Bonus! Learn how High Frequency Traders are operating in your instruments, and how you must adapt to compete with them.

also You can find my other: Trading-posts

General
Complete name : Tape Reading Workshop 4-6.avi
Format : AVI
Format/Info : Audio Video Interleave
Format profile : OpenDML
File size : 2.78 GiB
Duration : 8 h 14 min
Overall bit rate : 804 kb/s

Video
ID : 0
Format : TechSmith
Codec ID : tscc
Codec ID/Info : TechSmith Screen Capture
Duration : 8 h 14 min
Bit rate : 445 kb/s
Width : 1 024 pixels
Height : 768 pixels
Display aspect ratio : 4:3
Frame rate : 30.000 FPS
Bits/(Pixel*Frame) : 0.019
Stream size : 1.54 GiB (55%)

Audio
ID : 1
Format : PCM
Format settings : Little / Signed
Codec ID : 1
Duration : 8 h 14 min
Bit rate mode : Constant
Bit rate : 352.8 kb/s
Channel(s) : 1 channel
Sampling rate : 22.05 kHz
Bit depth : 16 bits
Stream size : 1.22 GiB (44%)
Alignment : Aligned on interleaves
Interleave, duration : 1000 ms (30.00 video frames)
Interleave, preload duration : 749 ms

Screenshots

Price Action Room - Tape Reading Mini-Mentorship

Price Action Room - Tape Reading Mini-Mentorship

Price Action Room - Tape Reading Mini-Mentorship

Price Action Room - Tape Reading Mini-Mentorship

Price Action Room - Tape Reading Mini-Mentorship

Price Action Room - Tape Reading Mini-Mentorship

✅ Exclusive eLearning Videos ParRus-blogadd to bookmarks

Feel free to contact me PM
when links are dead or want any repost

Price Action Room - Tape Reading Mini-Mentorship