Tags
Language
Tags

Project Management Professional (PMP) - 6th Edition

Posted By: ParRus
Project Management Professional (PMP) - 6th Edition

Project Management Professional (PMP) - 6th Edition
WEBRip | English | MP4 | 1280 x 720 | AVC ~373 Kbps | 30 fps
AAC | 192 Kbps | 48.0 KHz | 2 channels | ~23 hours | 4.38 GB
Genre: eLearning Video / Business, Sales, Marketing

“Project Management Professional (PMP) Certification” offered by “Project Management Institute (PMI)” is one of the most sought certifications in the fields of Project management. This certification promises the individual to acquire knowledge of various principles and process involved in managing a project effectively. Aspirants of project management should gain in depth understanding of the principles and its applications in various processes as defined in the book of knowledge (PMBOK). These principles and processes keep updating with time. The PMBOK is recently updated to Version 6 to maintain pace with the changing Project Environment.
This course ensure your understanding of the principles and processes as aligned PMBOK guide V6. our expert with over 25+ years experience in project management will facilitate you with an in-depth understanding of various project management concepts, terminology, formula and other key inputs needed to get ready for the PMP exam. Along with the course material, you will get the 35 Contact hours certificate which is necessary for you to be eligible for the PMP exam.

To ensure aspirants of Project Management receive qualitative content, PMI offers R.E.P(Registered Education Provider) accreditation only to organizations that qualify the delivery criteria. “GreyCampus.Inc is a globally registered R.E.P of PMI, USA (REP ID:3871)”. Grey campus is one of the 1st organisations to launch the updated -PMP V6 to equip aspirants with the terminology of the upgraded version.
Who this course is for:

Professionals who are interested in becoming a certified Project Manager
Anyone who wants to prepare for and pass the PMP exam
Professionals who are having experience in project management industry and want to get recognition for their skills though certification.

Requirements

Secondary degree (high school diploma, associate’s degree or the global equivalent) ; 7,500 hours (5 years) leading and directing projects & 35 hours of project management education.
Four-year degree; 4,500 hours (3 years) leading and directing projects & 35 hours of project management education.

also You can find my other helpful Business-posts

General
Complete name : 036 Sequence Activities.mp4
Format : MPEG-4
Format profile : Base Media / Version 2
Codec ID : mp42 (isom/iso2/avc1/mp41/mp42)
File size : 84.6 MiB
Duration : 20 min 55 s
Overall bit rate : 565 kb/s
Encoded date : UTC 2018-01-08 04:01:48
Tagged date : UTC 2018-01-08 04:01:48
Writing application : Lavf53.32.100

Video
ID : 1
Format : AVC
Format/Info : Advanced Video Codec
Format profile : High@L3
Format settings : CABAC / 4 Ref Frames
Format settings, CABAC : Yes
Format settings, RefFrames : 4 frames
Codec ID : avc1
Codec ID/Info : Advanced Video Coding
Duration : 20 min 55 s
Bit rate : 373 kb/s
Width : 1 280 pixels
Height : 720 pixels
Display aspect ratio : 16:9
Frame rate mode : Constant
Frame rate : 30.000 FPS
Color space : YUV
Chroma subsampling : 4:2:0
Bit depth : 8 bits
Scan type : Progressive
Bits/(Pixel*Frame) : 0.013
Stream size : 55.7 MiB (66%)
Writing library : x264 core 136
Encoding settings : cabac=1 / ref=4 / deblock=1:0:0 / analyse=0x3:0x113 / me=umh / subme=7 / psy=0 / mixed_ref=1 / me_range=16 / chroma_me=1 / trellis=1 / 8x8dct=1 / cqm=0 / deadzone=21,11 / fast_pskip=0 / chroma_qp_offset=0 / threads=54 / lookahead_threads=5 / sliced_threads=0 / nr=0 / decimate=1 / interlaced=0 / bluray_compat=0 / constrained_intra=0 / bframes=16 / b_pyramid=2 / b_adapt=1 / b_bias=0 / direct=1 / weightb=1 / open_gop=0 / weightp=2 / keyint=300 / keyint_min=25 / scenecut=40 / intra_refresh=0 / rc=2pass / mbtree=0 / bitrate=373 / ratetol=1.0 / qcomp=0.60 / qpmin=10 / qpmax=51 / qpstep=4 / cplxblur=20.0 / qblur=0.5 / ip_ratio=1.40 / pb_ratio=1.30 / aq=1:1.00
Language : English
Encoded date : UTC 2018-01-08 04:01:48
Tagged date : UTC 2018-02-08 05:41:00

Audio
ID : 2
Format : AAC
Format/Info : Advanced Audio Codec
Format profile : LC
Codec ID : mp4a-40-2
Duration : 20 min 55 s
Bit rate mode : Constant
Bit rate : 192 kb/s
Channel(s) : 2 channels
Channel positions : Front: L R
Sampling rate : 48.0 kHz
Frame rate : 46.875 FPS (1024 SPF)
Compression mode : Lossy
Stream size : 28.3 MiB (34%)
Default : Yes
Alternate group : 1
Encoded date : UTC 2018-01-08 04:01:48
Tagged date : UTC 2018-02-08 05:41:00

Screenshots

Project Management Professional (PMP) - 6th Edition

Project Management Professional (PMP) - 6th Edition

Project Management Professional (PMP) - 6th Edition

Project Management Professional (PMP) - 6th Edition

Exclusive eLearning Videos ParRus-blogadd to bookmarks

Project Management Professional (PMP) - 6th Edition