Subcategories

Udemy - Photography Business: Publish Images from a Digital Camera

Posted By: ParRus
Udemy - Photography Business: Publish Images from a Digital Camera

Udemy - Photography Business: Publish Images from a Digital Camera
WEBRip | English | MP4 + PDF Guides | 1280 x 720 | AVC ~927 kbps | 30 fps
AAC | 61 Kbps | 44.1 KHz | 2 channels | ~3.5 hours | 841 MB
Genre: eLearning Video / Business, Photography

Learn how to market your own original photographs with this simple course.
What you'll learn
Make money with images
Make complete wordpress photography website
Make store on website so can sell images direct from website
Requirements
Digital Camera
Computer
Internet

Description
Do you own a digital camera and have some talent with photography or vector graphics? Do you have access to a computer with an Internet connection? Would you like to make money from the images you take with your digital camera or your artwork? Answer “yes” To those three simple questions, and you have given yourself a perfect reason to continue with this course.

This course will teach you all you need to know to start making money with your images in days from your digital camera and computer .The course reveals the secret and assess the opportunities. Specifically this course covers following.

Part 1 : Agencies to sell images and make money

What agencies are and how they work
What images sell and what do not and why
How to meet strict technical requirements
Easy tips to put you one step ahead
Pitfalls and how to avoid them
Information on leading agencies and which are best for you
Legal requirements, including specimen model releases and copyright information
Part 2 : Create a outstanding photography website + Store

This course will teach you step by step creating a complete WordPress photography website + store where you can sell your own images directly from your website

Who this course is for:
Photographers

also You can find my other helpful Business-posts
(if old file-links don't show activity, try copy-paste them to the address bar)

General
Complete name : 010 Read the rules.mp4
Format : MPEG-4
Format profile : Base Media
Codec ID : isom (isom/avc1/mp42)
File size : 16.8 MiB
Duration : 2 min 21 s
Overall bit rate mode : Variable
Overall bit rate : 991 kb/s
Encoded date : UTC 2014-12-07 18:08:37
Tagged date : UTC 2014-12-07 18:08:37

Video
ID : 1
Format : AVC
Format/Info : Advanced Video Codec
Format profile : Baseline@L3.2
Format settings : 3 Ref Frames
Format settings, CABAC : No
Format settings, RefFrames : 3 frames
Codec ID : avc1
Codec ID/Info : Advanced Video Coding
Duration : 2 min 21 s
Bit rate : 927 kb/s
Maximum bit rate : 10.2 Mb/s
Width : 1 280 pixels
Height : 720 pixels
Display aspect ratio : 16:9
Frame rate mode : Constant
Frame rate : 30.000 FPS
Color space : YUV
Chroma subsampling : 4:2:0
Bit depth : 8 bits
Scan type : Progressive
Bits/(Pixel*Frame) : 0.034
Stream size : 15.7 MiB (94%)
Writing library : Zencoder Video Encoding System
Encoded date : UTC 2014-12-07 18:08:27
Tagged date : UTC 2014-12-07 18:08:37

Audio
ID : 2
Format : AAC
Format/Info : Advanced Audio Codec
Format profile : LC
Codec ID : mp4a-40-2
Duration : 2 min 21 s
Bit rate mode : Variable
Bit rate : 61.0 kb/s
Maximum bit rate : 69.7 kb/s
Channel(s) : 2 channels
Channel positions : Front: L R
Sampling rate : 44.1 kHz
Frame rate : 43.066 FPS (1024 SPF)
Compression mode : Lossy
Stream size : 1.03 MiB (6%)
Encoded date : UTC 2014-12-07 18:08:37
Tagged date : UTC 2014-12-07 18:08:37
Screenshots

Udemy - Photography Business: Publish Images from a Digital Camera

Udemy - Photography Business: Publish Images from a Digital Camera

Udemy - Photography Business: Publish Images from a Digital Camera

Udemy - Photography Business: Publish Images from a Digital Camera

✅ Exclusive eLearning Videos ParRus-blogadd to bookmarks
Feel free to contact me PM
when links are dead or want any repost

Udemy - Photography Business: Publish Images from a Digital Camera