Subcategories

Qt 5 C++ GUI Development For Beginners: The Fundamentals (Updated)

Posted By: ParRus
Qt 5 C++ GUI Development For Beginners: The Fundamentals (Updated)

Qt 5 C++ GUI Development For Beginners: The Fundamentals
WEBRip | English | MP4 | 1280 x 720 | AVC ~800 Kbps | 30 fps
AAC | 40 Kbps | 48.0 KHz | 1 channel | 14:31:14 | 5.14 GB
Genre: Video Tutorial / Development, Software Engineering, QT Framework

This course will take you from zero to a level where you can write any Qt C++ Gui application you may want. It is aimed at complete beginners but people with varying levels of experience wishing to learn Qt C++ Gui will equally find it useful.
We visit the fascinating concept signals and slots in Qt where you learn the most flexible way to respond to events.

Next we dive in the Qt Widgets section and visit some of the most important widget classes in Qt.

Dialogs are explored next, we look at QDialog and how to build your own custom dialog class from scratch, QDialogButtonBox, QMessageBox, QFontDialog, QFileDialog, QInputDialog and how they add a layer of interactivity to your Qt GUI applications.

We then go on and explore how to work with the Qt Resource System, Styling your Qt applications with QStyle, QPalette and Style Sheets, Saving your application settings with QSetting, Working with Files and Directories using QFile and QDir and we wrap up the course with a tour of the network capabilities of Qt.

This course was designed to help you succeed in becoming a Qt Gui application developer regardless of your current level of expertise. The only requirement is to bring in an open mind and a strong willingness to learn.

Content:

* Getting Started
Getting Started
Downloading and Installing Qt Creator on Windows
Teaser : Build your First Qt Gui App in 10 minutes!
Downloading and Installing Qt Creator-Linux and Mac
Qt-An Overview of Qt Creator and Tooling (Compilers,Debuggers)

* C++ Beginner Crash Course
Your First C++ console Program
Streams-Input and Output
C++ Variables and Data Types
C++ Operators and Flow Control
C++ Demo Game Program : Guess My Number
C++ Functions
C++ Classes Part 1 of 3
C++ Classes Part 2 of 3
C++ Classes Part 3 of 3
Your First Qt Gui Application
Demo-Guess Numbers Gui

* Signals And Slots
C++ Lambda Basics
Connecting Signals to Slots : 3 Different Ways
Demo -Your Try on Signals and Slots

* A Tour of Qt Widgets
QWidget Class Part 1 of 2
QWidget Class Part 2 of 2
QMainWindow Class
QMessageBox Class
QPushButton Class
QLineEdit Class
QTextEdit Class
QLabel Class
Qt Layouts
QHBoxLayout
QVBoxLayout
Size Policy and Stretches
QGridLayout
QCheckBox and QRadioButton Classes
The QList Class : Store your Objects in a List
QComboBox Class
QListWidge Class
QTabWidget Class
Menus and Toolbars : QAction, QMenu, QToolbar

* Working With Dialogs
QDialog Part 1 of 2
QDialog Part 2 of 2
QDialogButtonBox
QMessageBox
File Dialogs
Font Dialog
Color Dialog
QInputDialog

* Working with Resources
The Qt Resource System Explained
Working with Resource Files in your Qt Application

* Styling your Qt Applications
An Overview on Qt Styling Offerings
QPalette Used Right
Working with Style Sheets
Style Sheets in External Files
Demo : Doing More with Style Sheets

* Working with Settings
QSettings Explained
Working with QSettings in Qt App

* Working with Files and Directories
QFile: Reading and Writting Files
QDir : Manipulating Directories

* Model View Architecture Framework
Introduction to the Model View Framework of Qt
Your first try on QModelIndexes
Working with QFileSystemModel
Working with QStandardItemModel
Working with QStringListModel
Building your Custom Model
Working with Roles in the Model
Notifying the view of Changes in the Model
Managing View Header Data
QStandardItem API and QSelectionModel

* Working with Networks
An Overview of Qt Network Offerings
Downloading Html Pages in Your Qt App
Handling SSL Warnings/Errors when Downloading SSL Protected Data
Consuming REST APIs in your Qt App
Farewell and Next Steps

also You can find my other useful: programming-posts

General
Complete name : 2. Working with Resource Files in your Qt Application.mp4
Format : MPEG-4
Format profile : Base Media
Codec ID : isom (isom)
File size : 60.5 MiB
Duration : 10 min 1 s
Overall bit rate mode : Variable
Overall bit rate : 845 kb/s
Encoded date : UTC 2020-02-08 14:10:21
Tagged date : UTC 2020-02-08 14:10:21

Video
ID : 1
Format : AVC
Format/Info : Advanced Video Codec
Format profile : High@L3.1
Format settings : 4 Ref Frames
Format settings, CABAC : No
Format settings, RefFrames : 4 frames
Codec ID : avc1
Codec ID/Info : Advanced Video Coding
Duration : 10 min 0 s
Bit rate : 800 kb/s
Maximum bit rate : 3 257 kb/s
Width : 1 280 pixels
Height : 720 pixels
Display aspect ratio : 16:9
Frame rate mode : Constant
Frame rate : 30.000 FPS
Color space : YUV
Chroma subsampling : 4:2:0
Bit depth : 8 bits
Scan type : Progressive
Bits/(Pixel*Frame) : 0.029
Stream size : 57.4 MiB (95%)
Writing library : x264 core 155 r2901 7d0ff22
Encoding settings : cabac=0 / ref=2 / deblock=0:-3:-3 / analyse=0x3:0x113 / me=hex / subme=4 / psy=1 / psy_rd=2.00:0.70 / mixed_ref=0 / me_range=16 / chroma_me=1 / trellis=1 / 8x8dct=1 / cqm=0 / deadzone=21,11 / fast_pskip=1 / chroma_qp_offset=-2 / threads=9 / lookahead_threads=2 / sliced_threads=0 / nr=0 / decimate=1 / interlaced=0 / bluray_compat=0 / constrained_intra=0 / bframes=3 / b_pyramid=2 / b_adapt=1 / b_bias=0 / direct=1 / weightb=0 / open_gop=0 / weightp=0 / keyint=300 / keyint_min=30 / scenecut=40 / intra_refresh=0 / rc_lookahead=20 / rc=2pass / mbtree=1 / bitrate=800 / ratetol=1.0 / qcomp=0.60 / qpmin=0 / qpmax=69 / qpstep=4 / cplxblur=20.0 / qblur=0.5 / vbv_maxrate=17500 / vbv_bufsize=17500 / nal_hrd=none / filler=0 / ip_ratio=1.40 / aq=1:1.20
Encoded date : UTC 2020-02-08 20:47:22
Tagged date : UTC 2020-02-08 14:10:24

Audio
ID : 2
Format : AAC
Format/Info : Advanced Audio Codec
Format profile : HE-AAC / LC
Format settings : Explicit
Codec ID : mp4a-40-2
Duration : 10 min 1 s
Bit rate mode : Variable
Bit rate : 40.0 kb/s
Maximum bit rate : 44.8 kb/s
Channel(s) : 1 channel
Channel positions : Front: C
Sampling rate : 48.0 kHz / 24.0 kHz
Frame rate : 23.438 FPS (1024 SPF)
Compression mode : Lossy
Stream size : 2.87 MiB (5%)
Encoded date : UTC 2020-02-08 14:10:23
Tagged date : UTC 2020-02-08 14:10:24

Screenshots

Qt 5 C++ GUI Development For Beginners: The Fundamentals (Updated)

Qt 5 C++ GUI Development For Beginners: The Fundamentals (Updated)

Qt 5 C++ GUI Development For Beginners: The Fundamentals (Updated)

Qt 5 C++ GUI Development For Beginners: The Fundamentals (Updated)

Qt 5 C++ GUI Development For Beginners: The Fundamentals (Updated)

✅ Exclusive eLearning Videos ParRus-blogadd to bookmarks

Feel free to contact me PM
when links are dead or want any repost

Qt 5 C++ GUI Development For Beginners: The Fundamentals (Updated)