Tags
Language
Tags

Udemy - Advanced React and Redux (5/2020)

Posted By: ParRus
Udemy - Advanced React and Redux (5/2020)

Udemy - Advanced React and Redux (2020)
WEBRip | English | MP4 | 1920 x 1080 | AVC ~903 kbps | 30 fps
AAC | 62.8 Kbps | 44.1 KHz | 2 channels | Subs: English (.srt) | ~21 hours | 11.2 GB
Genre: eLearning Video / Web Development, React

Walkthroughs on advanced React v16.6.3 and Redux v4.0.0 - Authentication, Testing, Middlewares, HOC's, and Deployment
What you'll learn

Build a scaleable API with authentication using Express, Mongo, and Passport
Learn the differences between cookie-based and token-based authentication
Figure out what a Higher Order Component and how to use it to write dramatically less code
Write Redux middleware from scratch to uncover what is happening behind the scenes with Redux
Set up your own testing environment with Jest and Enzyme
Realize the power of building composable components

Requirements

Solid understanding of React
Intermediate understanding of Redux; you should have knowledge of reducers, actions, and action creators

Description

Knowledge of React + Redux is 100% required! If you are familiar with reducers and action creators you will be fine.

Course includes content specific to React v16.6.3 and Redux v4.0.1! For React v14, start with the section titled "Testing with React v14"

This is the tutorial you've been looking for to take your React and Redux skills to the next level.

Authentication with Express/Mongo? Yes! Middleware/Higher Order Components? We got it. Testing with Mocha/Chai? It's here!

This course wastes no time diving right into interesting topics, and teaches you the core knowledge you need to deeply understand and build React components and structure applications with Redux.

Mastering React and Redux can get you a position in web development or help you build that personal project you've been dreaming of. It's a skill that will put you more in demand in the modern web development industry, especially with the release of Redux and ReactNative.

There are dozens of great tutorials online for React and Redux, but none of them teach the challenging, core features of these two fantastic libraries. I created this course to push you beyond "just getting started."

Learn how to thoroughly test React and Redux code, including tests for action creators and reducers

Get familiar with Higher Order Components. Don't know what they are? No problem, you have been using them without even knowing it!

Rewrite a popular Redux Middleware from scratch to handle asynchronous actions

Become a master of the trickiest topic in Javascript: authentication. You will write a server with enterprise-grade authentication from scratch that can scale to hundreds of thousands of users. No shortcuts, no dummy data.

I have built the course that I would have wanted to take when I was learning React and Redux. A course that explains the concepts and how they're implemented in the best order for you to learn and deeply understand them.

Who this course is for:
Programmers with experience on React and Redux
NOT for programmers with no previous React/Redux experience!

also You can find my other helpful Programming-posts
(if old file-links don't show activity, try copy-paste them to the address bar)

General
Complete name : 123 Creating the Header.mp4
Format : MPEG-4
Format profile : Base Media
Codec ID : isom (isom/iso2/avc1/mp41)
File size : 42.1 MiB
Duration : 6 min 2 s
Overall bit rate : 973 kb/s
Writing application : Lavf58.29.100

Video
ID : 1
Format : AVC
Format/Info : Advanced Video Codec
Format profile : Main@L4
Format settings : CABAC / 4 Ref Frames
Format settings, CABAC : Yes
Format settings, RefFrames : 4 frames
Format settings, GOP : M=4, N=60
Codec ID : avc1
Codec ID/Info : Advanced Video Coding
Duration : 6 min 2 s
Bit rate : 903 kb/s
Nominal bit rate : 1 600 kb/s
Width : 1 920 pixels
Height : 1 080 pixels
Display aspect ratio : 16:10
Frame rate mode : Constant
Frame rate : 30.000 FPS
Color space : YUV
Chroma subsampling : 4:2:0
Bit depth : 8 bits
Scan type : Progressive
Bits/(Pixel*Frame) : 0.015
Stream size : 39.1 MiB (93%)
Writing library : x264 core 148
Encoding settings : cabac=1 / ref=3 / deblock=1:0:0 / analyse=0x1:0x111 / me=umh / subme=6 / psy=1 / psy_rd=1.00:0.00 / mixed_ref=1 / me_range=16 / chroma_me=1 / trellis=1 / 8x8dct=0 / cqm=0 / deadzone=21,11 / fast_pskip=1 / chroma_qp_offset=-2 / threads=24 / lookahead_threads=4 / sliced_threads=0 / nr=0 / decimate=1 / interlaced=0 / bluray_compat=0 / constrained_intra=0 / bframes=3 / b_pyramid=2 / b_adapt=1 / b_bias=0 / direct=1 / weightb=1 / open_gop=0 / weightp=2 / keyint=60 / keyint_min=6 / scenecut=0 / intra_refresh=0 / rc_lookahead=60 / rc=cbr / mbtree=1 / bitrate=1600 / ratetol=1.0 / qcomp=0.60 / qpmin=0 / qpmax=69 / qpstep=4 / vbv_maxrate=1600 / vbv_bufsize=3200 / nal_hrd=none / filler=0 / ip_ratio=1.40 / aq=1:1.00

Audio
ID : 2
Format : AAC
Format/Info : Advanced Audio Codec
Format profile : HE-AAC / LC
Format settings : Implicit
Codec ID : mp4a-40-2
Duration : 6 min 2 s
Bit rate mode : Constant
Bit rate : 62.8 kb/s
Channel(s) : 2 channels
Channel positions : Front: L R
Sampling rate : 44.1 kHz / 22.05 kHz
Frame rate : 21.533 FPS (1024 SPF)
Compression mode : Lossy
Stream size : 2.72 MiB (6%)
Default : Yes
Alternate group : 1
Screenshots

Udemy - Advanced React and Redux (5/2020)

Udemy - Advanced React and Redux (5/2020)

Udemy - Advanced React and Redux (5/2020)

Udemy - Advanced React and Redux (5/2020)

Udemy - Advanced React and Redux (5/2020)

✅ Exclusive eLearning Videos ParRus-blogadd to bookmarks
Feel free to contact me PM
when links are dead or want any repost

Udemy - Advanced React and Redux (5/2020)