Tags
Language
Tags

REST APIs with Flask and Python (05/2021)

Posted By: ParRus
REST APIs with Flask and Python (05/2021)

REST APIs with Flask and Python
WEBRip | English | MP4 | 1920 x 1080 | AVC ~421 Kbps | 30 fps
AAC | 121 Kbps | 44.1 KHz | 2 channels | Subs: English (srt) | 17h 02mn | 4.82 GB
Genre: eLearning Video / Development, Web Development, Flask

Build professional REST APIs with Python, Flask, Flask-RESTful, and Flask-SQLAlchemy
What you'll learn
Connect web or mobile applications to databases and servers via REST APIs
Create secure and reliable REST APIs which include authentication, logging, caching, and more
Understand the different layers of a web server and how web applications interact with each other
Handle seamless user authentication with advanced features like token refresh
Handle log-outs and prevent abuse in your REST APIs with JWT blacklisting
Develop professional-grade REST APIs with expert instruction

Requirements
Some prior programming experience in any programming language will help. The course includes a full Python refresher course.
All software used in the course is provided, and completely free
Complete beginners may wish to take a beginner Python course first, and then transition to this course afterwards

Description
Are you tired of boring, outdated, incomplete, or incorrect tutorials? I say no more to copy-pasting code that you don’t understand.

Welcome to the bestselling REST API course on Udemy! I'm Jose. I'm a software engineer, here to help you truly understand and develop your skills in web and REST API development with Python and Flask.

Production-ready REST APIs with Flask

This course will guide you in creating simple, intermediate, and advanced REST APIs including authentication, deployments, databases, and much more.

We'll start with a Python refresher that will take you from the very basics to some of the most advanced features of Python—that's all the Python you need to complete the course.

Using Flask and popular extensions Flask-RESTful, Flask-JWT, and Flask-SQLAlchemy we will dive right into developing complete, solid, production-ready REST APIs.

We will also look into essential technologies Git, Heroku, and nginx.

You'll be able to…

Create resource-based, production-ready REST APIs using Python, Flask, and popular Flask extensions;

Handle secure user registration and authentication with Flask.

Using SQLAlchemy and Flask-SQLAlchemy to easily and efficiently store resources to a database; and

Understand the complex intricacies of deployments and the performance of Flask REST APIs.

But what is a REST API anyway?

A REST API is an application that accepts data from clients and returns data back. For example, a REST API could accept text data from the client, such as a username and password, and return whether that is a valid user in the database.

When developing REST APIs, our clients are usually web apps or mobile apps. That's in contrast to when we make websites, where the clients are usually the users themselves.

Together we'll develop a REST API that not only allows clients to authenticate but also to store and retrieve any data you want from a database. Learning this will help you develop any REST API that you need for your own projects!

I pride myself on providing excellent support and feedback to every single student. I am always available to guide you and answer your questions.

I'll see you on the inside. Take your first step towards REST API mastery!

Who this course is for:
Students wanting to extend the capabilities of mobile and web applications by using server-side technologies
Software developers looking to expand their skill-set by learning to develop professional grade REST APIs
Those looking to learn Python while specifically catering to web services

also You can find my other useful: Development-posts

General
Complete name : 080 Logging in and retrieving Users from a database.mp4
Format : MPEG-4
Format profile : Base Media
Codec ID : isom (isom/iso2/avc1/mp41)
File size : 65.7 MiB
Duration : 16 min 42 s
Overall bit rate mode : Variable
Overall bit rate : 550 kb/s
Writing application : Lavf58.76.100

Video
ID : 1
Format : AVC
Format/Info : Advanced Video Codec
Format profile : Main@L4
Format settings : CABAC / 4 Ref Frames
Format settings, CABAC : Yes
Format settings, RefFrames : 4 frames
Format settings, GOP : M=4, N=60
Codec ID : avc1
Codec ID/Info : Advanced Video Coding
Duration : 16 min 42 s
Bit rate : 421 kb/s
Nominal bit rate : 1 200 kb/s
Width : 1 920 pixels
Height : 1 080 pixels
Display aspect ratio : 16:9
Frame rate mode : Constant
Frame rate : 30.000 FPS
Color space : YUV
Chroma subsampling : 4:2:0
Bit depth : 8 bits
Scan type : Progressive
Bits/(Pixel*Frame) : 0.007
Stream size : 50.3 MiB (77%)
Writing library : x264 core 148
Encoding settings : cabac=1 / ref=3 / deblock=1:0:0 / analyse=0x1:0x111 / me=umh / subme=6 / psy=1 / psy_rd=1.00:0.00 / mixed_ref=1 / me_range=16 / chroma_me=1 / trellis=1 / 8x8dct=0 / cqm=0 / deadzone=21,11 / fast_pskip=1 / chroma_qp_offset=-2 / threads=24 / lookahead_threads=4 / sliced_threads=0 / nr=0 / decimate=1 / interlaced=0 / bluray_compat=0 / constrained_intra=0 / bframes=3 / b_pyramid=2 / b_adapt=1 / b_bias=0 / direct=1 / weightb=1 / open_gop=0 / weightp=2 / keyint=60 / keyint_min=6 / scenecut=0 / intra_refresh=0 / rc_lookahead=60 / rc=cbr / mbtree=1 / bitrate=1200 / ratetol=1.0 / qcomp=0.60 / qpmin=0 / qpmax=69 / qpstep=4 / vbv_maxrate=1200 / vbv_bufsize=2400 / nal_hrd=none / filler=0 / ip_ratio=1.40 / aq=1:1.00

Audio
ID : 2
Format : AAC
Format/Info : Advanced Audio Codec
Format profile : LC
Codec ID : mp4a-40-2
Duration : 16 min 42 s
Source duration : 16 min 42 s
Bit rate mode : Variable
Bit rate : 121 kb/s
Maximum bit rate : 128 kb/s / 128 kb/s
Channel(s) : 2 channels
Channel positions : Front: L R
Sampling rate : 44.1 kHz
Frame rate : 43.066 FPS (1024 SPF)
Compression mode : Lossy
Stream size : 14.4 MiB (22%)
Source stream size : 14.4 MiB (22%)
Default : Yes
Alternate group : 1
mdhd_Duration : 1002127

Screenshots

REST APIs with Flask and Python (05/2021)

REST APIs with Flask and Python (05/2021)

REST APIs with Flask and Python (05/2021)

REST APIs with Flask and Python (05/2021)

Exclusive eLearning Videos ParRus-blogadd to bookmarks

REST APIs with Flask and Python (05/2021)