Subcategories

O'Reilly - Security Conference 2016 - Amsterdam, Netherlands (Full Course)

Posted By: ParRus
O'Reilly - Security Conference 2016 - Amsterdam, Netherlands (Full Course)

O'Reilly - Security Conference 2016 - Amsterdam, Netherlands
WEBRip | English | MP4 | 1280 x 720 | AVC ~1500 kbps | 25 fps
AAC | 128 Kbps | 44.1 KHz | 2 channels | 30:52:44 | 15.29 GB
Genre: Video Tutorial / Networking & Security

Security 2016 Amsterdam was O’Reilly Media’s first ever security conference in Europe. It gathered more than 65 of the top IT security experts from Europe, Silicon Valley, and the rest of the world to offer practical guidance on fending off the malware, spear-phishers, and DDoS attacks plaguing websites and the IoT everywhere. Containing specialized content on Euro-centric concerns like GDPR compliance, this video compilation offers a complete recording of every 40-minute session, 3.5-hour tutorial, and keynote delivered at the conference. You’ll hear from security pros at Google, Immuta, Farsight Security, Cloudera, Normation, PerimeterX, Fireglass, CoreOS, Snyk, Deloitte, Facebook, Lab Mouse, WhiteOps, and many more in this 50+ hour collection of cybersecurity wisdom and hard-knock experience.
Enjoy a front-row view for each of the conference's 46 sessions, 6 tutorials, and 7 keynotes
Hear from 65 of the top IT security experts from Europe and around the world
Watch detailed tutorials on Docker/container security, bot attacks, network forensics, and more
Listen to Google’s Thomas Dullien (aka Halvar Flake) on how to re-architect a defendable Internet
Take in practical GDPR-compliance strategies from Chiara Rustici and Steve Touw (Immuta)
Hear Dyn’s Phil Stanhope describe the DDoS attack on Dyn and the counter-measures to repel it
Watch Don Bailey (Lab Mouse Security) on the must-have processes for defeating IoT attacks
Learn about the value of DNS in cyber investigations from Merike Kaeo (Farsight Security)
Hear the latest on security tools like PAL, rkt, Inspec, Apache Drill, Rudder, and Macaroons
Learn the best practices for spreading security consciousness throughout the enterprise

General
Complete name : Moving beyond Threatbutt or Threat Landscape 2039 - Trey Darley (Kingfisher Operations, sprl).mp4
Format : MPEG-4
Format profile : Base Media
Codec ID : isom
File size : 409 MiB
Duration : 35mn 5s
Overall bit rate mode : Variable
Overall bit rate : 1 630 Kbps
Writing application : Lavf56.36.100

Video
ID : 2
Format : AVC
Format/Info : Advanced Video Codec
Format profile : Main@L3.2
Format settings, CABAC : Yes
Format settings, ReFrames : 4 frames
Codec ID : avc1
Codec ID/Info : Advanced Video Coding
Duration : 35mn 5s
Bit rate : 1 500 Kbps
Width : 1 280 pixels
Height : 720 pixels
Display aspect ratio : 16:9
Frame rate mode : Constant
Frame rate : 25.000 fps
Color space : YUV
Chroma subsampling : 4:2:0
Bit depth : 8 bits
Scan type : Progressive
Bits/(Pixel*Frame) : 0.065
Stream size : 375 MiB (92%)
Writing library : x264 core 146 r2538 121396c
Encoding settings : cabac=1 / ref=1 / deblock=1:0:0 / analyse=0x1:0x111 / me=hex / subme=5 / psy=1 / psy_rd=1.00:0.00 / mixed_ref=0 / me_range=16 / chroma_me=1 / trellis=1 / 8x8dct=0 / cqm=0 / deadzone=21,11 / fast_pskip=1 / chroma_qp_offset=0 / threads=4 / lookahead_threads=1 / sliced_threads=0 / nr=0 / decimate=1 / interlaced=0 / bluray_compat=0 / stitchable=1 / constrained_intra=0 / bframes=3 / b_pyramid=2 / b_adapt=1 / b_bias=0 / direct=1 / weightb=1 / open_gop=0 / weightp=2 / keyint=50 / keyint_min=20 / scenecut=40 / intra_refresh=0 / rc_lookahead=40 / rc=cbr / mbtree=1 / bitrate=1500 / ratetol=1.0 / qcomp=0.60 / qpmin=10 / qpmax=50 / qpstep=4 / vbv_maxrate=1500 / vbv_bufsize=1200 / nal_hrd=none / filler=0 / ip_ratio=1.41 / aq=1:1.00

Audio
ID : 1
Format : AAC
Format/Info : Advanced Audio Codec
Format profile : LC
Codec ID : 40
Duration : 35mn 5s
Duration_LastFrame : -2ms
Bit rate mode : Variable
Bit rate : 128 Kbps
Maximum bit rate : 1 500 Kbps
Channel(s) : 2 channels
Channel(s)_Original : 1 channel
Channel positions : Front: C
Sampling rate : 44.1 KHz
Compression mode : Lossy
Stream size : 32.1 MiB (8%)

Screenshots

O'Reilly - Security Conference 2016 - Amsterdam, Netherlands (Full Course)

O'Reilly - Security Conference 2016 - Amsterdam, Netherlands (Full Course)

O'Reilly - Security Conference 2016 - Amsterdam, Netherlands (Full Course)

O'Reilly - Security Conference 2016 - Amsterdam, Netherlands (Full Course)

O'Reilly - Security Conference 2016 - Amsterdam, Netherlands (Full Course)

O'Reilly - Security Conference 2016 - Amsterdam, Netherlands (Full Course)

O'Reilly - Security Conference 2016 - Amsterdam, Netherlands (Full Course)

Exclusive eLearning Videos ParRus-blogadd to bookmarks

O'Reilly - Security Conference 2016 - Amsterdam, Netherlands (Full Course)