Subcategories

Udemy - Selenium WebDriver With Python 3.x - Novice To Ninja (2019)

Posted By: ParRus
Udemy - Selenium WebDriver With Python 3.x - Novice To Ninja (2019)

Udemy - Selenium WebDriver With Python 3.x - Novice To Ninja (2019)
WEBRip | English | MP4 | 1280 x 720 | AVC ~1344 Kbps | 30 fps
AAC | 128 Kbps | 44.1 KHz | 2 channels | ~27 hours | 3.93 GB
Genre: Video Tutorial

Join the best course to learn how to implement an automation framework from scratch using real web application
*** Best Selenium WebDriver With Python Programming Language Course *** Complete Framework Implementation From Scratch ***

This course includes a wide range of topics from Selenium WebDriver Basics and Advanced, Python Programming Concepts, Unittest And Pytest Framework, Automation Framework Design (Page Objects, Data Driven, Reading CSV Files), Logging Infrastructure, Cross-Browser Testing, Interview Preparation. All materials including code files.
You achieve two targets with one single course

Complete Python Programming Language
Selenium WebDriver Automation
Why Python Programming Language?

Python Programming Language is the fastest growing programming language within both the fields, development and testing. QA industry is rapidly progressing to move on with Python Programming Language for all the automation needs because of the flexibility it offers.

One stop place to become an Expert in Web Automation Framework related technologies from scratch *****

We start from Beginners level and go through Advance level. This is a single course for everything you need to know related to Web UI Automation.

WHAT MAKES THIS COURSE BEST ON UDEMY?

We assume that students have no experience in automation/coding and start every topic from scratch and basics.

Examples are taken from TESTING REAL TIME HOSTED WEB APPLICATIONS to understand how different components can be automated, that will give you idea of industry level framework and give you confidence.

NO PRIOR CODING OR AUTOMATION EXPERIENCE NEEDED, this course covers all the necessary topics.

Get more than 20 hours of unique content with real example code files provided to refer and learn with examples.

Get awesome Support, on demand desktop session on Team Viewer and Skype.

*******************************************************************************************************

Join the group of more than 25000 students learning from us in different courses with positive feedback.

Are you looking to step into automation industry with the latest technologies in market?
Are you keen to learn GUI automation using Selenium WebDriver With Python Programming Language and other latest framework technologies?
Interested in learning how Selenium WebDriver is used in projects?
Please take a look at the complete curriculum to get an idea of topics covered in this course.

Who this course is for:
Quality Assurance professionals and Manual testers looking to start career on test automation
Quality Assurance Automation professionals to intensify their current test automation skill sets
Fresh Graduates who want to make a dream career in software engineering
Quality Assurance Team leads and Managers

What you'll learn
***** At the end of this course, you will have detailed understanding of Web Automation Frameworks
You will be able to EXPLAIN, DESIGN and IMPLEMENT structured AUTOMATION FRAMEWORKS
***** You should be able to lead any Selenium Automation Project on your own
You will have required skills to automate any web application
You will be able to get hands on Python Programming Language
***** You will be able to understand and write efficient testing code
You will be able to perform CROSS-BROWSER testing
You will have good understanding of Unittest and Pytest Frameworks
If you are looking for a job, with all this great knowledge you should be easily able to clear Selenium Automation interviews

also You can find my other useful: programming-posts

General
Complete name : 6. Practice Exercise With Solution Homework .mp4
Format : MPEG-4
Format profile : Base Media
Codec ID : isom (isom/iso2/avc1/mp41)
File size : 21.1 MiB
Duration : 10 min 33 s
Overall bit rate : 280 kb/s
Writing application : Lavf57.72.101

Video
ID : 1
Format : AVC
Format/Info : Advanced Video Codec
Format profile : High@L3.1
Format settings : CABAC / 4 Ref Frames
Format settings, CABAC : Yes
Format settings, RefFrames : 4 frames
Codec ID : avc1
Codec ID/Info : Advanced Video Coding
Duration : 10 min 33 s
Bit rate : 143 kb/s
Width : 1 280 pixels
Height : 720 pixels
Display aspect ratio : 16:9
Original display aspect ratio : 16:9
Frame rate mode : Constant
Frame rate : 30.000 FPS
Color space : YUV
Chroma subsampling : 4:2:0
Bit depth : 8 bits
Scan type : Progressive
Bits/(Pixel*Frame) : 0.005
Stream size : 10.8 MiB (51%)
Writing library : x264 core 148
Encoding settings : cabac=1 / ref=2 / deblock=1:-1:-1 / analyse=0x3:0x113 / me=hex / subme=4 / psy=1 / psy_rd=1.00:0.15 / mixed_ref=0 / me_range=16 / chroma_me=1 / trellis=1 / 8x8dct=1 / cqm=0 / deadzone=21,11 / fast_pskip=1 / chroma_qp_offset=-1 / threads=1 / lookahead_threads=1 / sliced_threads=0 / nr=0 / decimate=1 / interlaced=0 / bluray_compat=0 / constrained_intra=0 / bframes=3 / b_pyramid=2 / b_adapt=1 / b_bias=0 / direct=1 / weightb=1 / open_gop=0 / weightp=1 / keyint=250 / keyint_min=25 / scenecut=40 / intra_refresh=0 / rc_lookahead=20 / rc=crf / mbtree=1 / crf=23.0 / qcomp=0.60 / qpmin=0 / qpmax=69 / qpstep=4 / vbv_maxrate=3000 / vbv_bufsize=2000 / crf_max=0.0 / nal_hrd=none / filler=0 / ip_ratio=1.40 / aq=1:1.00

Audio
ID : 2
Format : AAC
Format/Info : Advanced Audio Codec
Format profile : LC
Codec ID : mp4a-40-2
Duration : 10 min 33 s
Bit rate mode : Constant
Bit rate : 128 kb/s
Channel(s) : 2 channels
Channel positions : Front: L R
Sampling rate : 44.1 kHz
Frame rate : 43.066 FPS (1024 SPF)
Compression mode : Lossy
Stream size : 9.63 MiB (46%)
Default : Yes
Alternate group : 1

Screenshots

Udemy - Selenium WebDriver With Python 3.x - Novice To Ninja (2019)

Udemy - Selenium WebDriver With Python 3.x - Novice To Ninja (2019)

Udemy - Selenium WebDriver With Python 3.x - Novice To Ninja (2019)

Udemy - Selenium WebDriver With Python 3.x - Novice To Ninja (2019)

Udemy - Selenium WebDriver With Python 3.x - Novice To Ninja (2019)

✅ Exclusive eLearning Videos ParRus-blogadd to bookmarks

Feel free to contact me PM
when links are dead or want any repost

Udemy - Selenium WebDriver With Python 3.x - Novice To Ninja (2019)