Subcategories

Fret 12 - Sevendust - John Connelly (2017)

Posted By: ParRus
Fret 12 - Sevendust - John Connelly (2017)

Fret 12 - Sevendust - John Connelly (2017)
WEBRip | English | MP4 + PDF Guides | 1280 x 720 | AVC ~3931 kbps | 29.970 fps
AAC 180 Kbps 44.1 KHz | 2 channels | 11:35:59 | 13 GB
Genre: eLearning Video / Guitar lesson

With well over 20 years of writing, touring, side-projects, building a family on and off the road, and putting out records that consistently deliver exactly what fans want; John Connolly, the percussive hammer behind the genre-defining Sevendust sound, shares his complete life story and musical journey so far. John has helped build an iconic band out of continued perseverance, dedication, and brotherhood that kept their own brand of music alive, while constantly evolving and maturing, decade after decade - inspiring waves of younger music makers. Hear his story told from the perspective of songwriter/guitarist John Connolly supported by his bandmates Morgan Rose, Clint Lowery and Lajon Witherspoon.
The Sound – John Connolly teaches 15 songs spanning 20 years of Sevendust albums, plus tracks from his side-project (Projected), as well as various guitar techniques and a detailed look into his writing process.
The Story – John takes us from his childhood to the stage, to having children and surviving on the road throughout his career in a changing music industry.
Over 4 hours of tutorials covering complete songs, guitar solos, and techniques.
Includes live performance footage, backstage access, in-studio footage and personal photos from John's life.

Complete Guitar Tablature included as a digital download.

also You can look my other last: Guitar Lessons-posts

General
Complete name Fret 12 - Sevendust - John Connelly\John-Connolly_SS_Story_HD.mp4
Format : MPEG-4
Codec ID : M4V
File size : 2.39 GiB
Duration : 1h 19mn
Overall bit rate mode : Variable
Overall bit rate : 4 293 Kbps
Movie name : John Connolly - The Story
Composer : Fret12mbp
Encoded date : UTC 2016-05-31 20:35:03
Tagged date : UTC 2016-05-31 20:36:48

Video #1
ID : 2
Format : AVC
Format/Info : Advanced Video Codec
Format profile : Main@L3.2
Format settings, CABAC : No
Format settings, ReFrames : 2 frames
Codec ID : avc1
Codec ID/Info : Advanced Video Coding
Duration : 1h 19mn
Bit rate : 3 931 Kbps
Width : 1 280 pixels
Height : 720 pixels
Display aspect ratio : 16:9
Frame rate mode : Constant
Frame rate : 29.970 fps
Color space : YUV
Chroma subsampling : 4:2:0
Bit depth : 8 bits
Scan type : Progressive
Bits/(Pixel*Frame) : 0.142
Stream size : 2.19 GiB (92%)
Language : English
Encoded date : UTC 2016-05-31 20:34:00
Tagged date : UTC 2016-05-31 20:36:48
Color range : Limited
Color primaries : BT.709
Transfer characteristics : BT.709
Matrix coefficients : BT.709

Video #2
ID : 4
Format : JPEG
Codec ID : jpeg
Duration : 1h 19mn
Bit rate mode : Variable
Bit rate : 2 385 bps
Width : 1 280 pixels
Height : 720 pixels
Display aspect ratio : 16:9
Frame rate mode : Variable
Frame rate : 0.003 fps
Minimum frame rate : 0.002 fps
Maximum frame rate : 0.010 fps
Color space : YUV
Chroma subsampling : 4:2:2
Bit depth : 8 bits
Compression mode : Lossy
Bits/(Pixel*Frame) : 0.863
Stream size : 1.52 MiB (0%)
Language : English
Encoded date : UTC 2016-05-31 20:34:00
Tagged date : UTC 2016-05-31 20:36:48

Audio
ID : 3
Format : AAC
Format/Info : Advanced Audio Codec
Format profile : LC
Codec ID : 40
Duration : 1h 19mn
Source duration : 1h 19mn
Bit rate mode : Constant
Bit rate : 180 Kbps
Nominal bit rate : 192 Kbps
Channel(s) : 2 channels
Channel positions : Front: L R
Sampling rate : 44.1 KHz
Compression mode : Lossy
Stream size : 103 MiB (4%)
Source stream size : 103 MiB (4%)
Language : English
Encoded date : UTC 2016-05-31 20:34:00
Tagged date : UTC 2016-05-31 20:36:48

Text
ID : 1
Format : Timed Text
Codec ID : tx3g
Duration : 1h 19mn
Bit rate mode : Variable
Bit rate : 0 bps
Stream size : 254 Bytes (0%)
Language : English
Encoded date : UTC 2016-05-31 20:34:00
Tagged date : UTC 2016-05-31 20:36:48

Other #1
ID : 5
Type : Hint
Format : RTP
Codec ID : rtp
Duration : 1h 19mn
Title : Hinted Video Track
Language : English
Encoded date : UTC 2016-05-31 20:34:00
Tagged date : UTC 2016-05-31 20:36:48
Source duration : 4784113
Source frame count : 16
Source stream size : 51408
Stream size : 51408
Bit rate mode : VBR

Other #2
ID : 6
Type : Hint
Format : RTP
Codec ID : rtp
Duration : 1h 19mn
Title : Hinted Sound Track
Language : English
Encoded date : UTC 2016-05-31 20:34:00
Tagged date : UTC 2016-05-31 20:36:48
Source duration : 4784124
Source frame count : 90112
Source stream size : 6180144
Stream size : 6180144
Bit rate mode : VBR

Other #3
ID : 7
Type : Hint
Format : RTP
Codec ID : rtp
Duration : 1h 19mn
Title : Hinted Video Track
Language : English
Encoded date : UTC 2016-05-31 20:34:15
Tagged date : UTC 2016-05-31 20:36:48
Source duration : 4784113
Source frame count : 143380
Source stream size : 97175096
Stream size : 97175096
Screenshots

Fret 12 - Sevendust - John Connelly (2017)

Fret 12 - Sevendust - John Connelly (2017)

Fret 12 - Sevendust - John Connelly (2017)

Fret 12 - Sevendust - John Connelly (2017)

Fret 12 - Sevendust - John Connelly (2017)

Exclusive eLearning Videos ParRus-blogadd to bookmarks

Feel free to contact me PM
when links are dead or want any repost

Fret 12 - Sevendust - John Connelly (2017)